<?xml version="1.0" standalone="no"?>
<!DOCTYPE svg PUBLIC "-//W3C//DTD SVG 1.1//EN" "http://www.w3.org/Graphics/SVG/1.1/DTD/svg11.dtd" >
<svg xmlns="http://www.w3.org/2000/svg" xmlns:xlink="http://www.w3.org/1999/xlink" version="1.1">
<metadata>
Created by FontForge 20170731 at Mon Jul 27 17:51:37 2020
 By Aleksey,,,
Copyright (c) 2020 by Cognac Lheraud for the design. 
Copyright (c) 2020 by Bruno Bernard for the font software. 
</metadata>
<defs>
<font id="LheraudScript06beta-Regular" horiz-adv-x="500" >
  <font-face 
    font-family="Lheraud Script 06 beta Regular"
    font-weight="400"
    font-stretch="normal"
    units-per-em="1000"
    panose-1="0 0 0 0 0 0 0 0 0 0"
    ascent="750"
    descent="-250"
    x-height="213"
    cap-height="710"
    bbox="-378 -583 1679 922"
    underline-thickness="0"
    underline-position="0"
    unicode-range="U+0020-2019"
  />
<missing-glyph horiz-adv-x="0" 
 />
    <glyph glyph-name=".notdef" horiz-adv-x="0" 
 />
    <glyph glyph-name=".null" horiz-adv-x="0" 
 />
    <glyph glyph-name="nonmarkingreturn" horiz-adv-x="333" 
 />
    <glyph glyph-name="space" unicode=" " horiz-adv-x="275" 
 />
    <glyph glyph-name="comma" unicode="," horiz-adv-x="139" 
d="M33 39q4 1 5.5 2.5t3.5 2.5q1 2 4 7.5t8 5.5t8.5 -2.5t6.5 -5.5q5 -3 8.5 -5.5t3.5 -8.5q0 -22 -9 -50.5t-33 -46.5q-5 -16 -18 -37.5t-18 -29.5q-3 -6 -6.5 -9t-7.5 -3h-3t-1 3q-3 1 -1 1.5t2 2.5q0 13 20 43.5t30 72.5q-1 6 -5 23t2 34z" />
    <glyph glyph-name="hyphen" unicode="-" horiz-adv-x="241" 
d="M41 126q31 3 56 6t56 10q4 -3 5 -6.5t-2 -8.5q-31 -7 -56.5 -10t-56.5 -6q-4 2 -4.5 6.5t2.5 8.5z" />
    <glyph glyph-name="period" unicode="." horiz-adv-x="139" 
d="M79 70q6 -4 5 -9t-6 -9q5 0 9 -3t4 -13q0 -4 -2.5 -9.5t-9.5 -8.5q-1 -12 -9 -16t-16 -4q-10 0 -15.5 8t-5.5 18q0 21 14 33.5t32 12.5z" />
    <glyph glyph-name="slash" unicode="/" horiz-adv-x="140" 
d="M-35 -100l240 680h9l-240 -680h-9z" />
    <glyph glyph-name="A" unicode="A" horiz-adv-x="985" 
d="M464 87q3 84 40 155.5t88 122t107 79t96 28.5t54 -22.5t14 -54.5q0 -65 -27.5 -127.5t-70 -116.5t-96.5 -98.5t-106 -74.5q23 -21 57.5 -31.5t80.5 -10.5q54 0 111 24.5t93 86.5q2 1 4.5 -0.5t2.5 -4.5q-11 -25 -36 -52t-58.5 -49t-74.5 -36.5t-83 -14.5q-55 0 -93 16.5
t-61 43.5q-26 -10 -49 -16t-42 -6q-57 0 -80.5 28t-23.5 64q0 39 18.5 87.5t46 97.5t60.5 95.5t61 83.5q25 40 52 77t53 70q-29 -13 -61.5 -31.5t-67.5 -44.5q-16 -11 -32.5 -23.5t-33.5 -25.5q-72 -103 -131 -197.5t-130 -169.5q-30 -31 -61 -60t-68 -29q-6 0 -13 2t-11 6
q0 3 2 5.5t5 3.5q2 -2 6 -3.5t11 -1.5q31 0 60.5 26.5t60.5 59.5q58 63 115.5 150t126.5 188q-47 -36 -97 -74.5t-98.5 -74.5t-94.5 -67t-85 -51q-4 0 -6 3.5t-1 7.5q39 19 88.5 51.5t102 71.5t107 81.5t104.5 80.5q43 61 95 115t101 94t89 63t58 23q5 0 8.5 -2t4.5 -6
q1 -5 -29 -39.5t-73 -86.5q44 19 83.5 27t75.5 8q6 0 10.5 -0.5t11.5 -1.5q2 -10 7.5 -12t12 -0.5t12.5 3.5t10 -1q4 -9 8 -6.5t6 3.5q4 -1 7.5 -5t8.5 -17q1 10 4.5 10.5t6.5 -1.5q31 -19 45.5 -53.5t14.5 -68.5q0 -9 -1 -17t-2 -14q-2 0 -3.5 0.5t-2.5 1.5q0 22 -5.5 46.5
t-22.5 45t-49.5 34t-85.5 13.5q-43 0 -87.5 -5.5t-93.5 -24.5q-29 -37 -59.5 -79t-56.5 -87q-64 -107 -107 -192.5t-43 -151.5q0 -31 17 -50t61 -19q13 0 27 2t28 6q-15 25 -21.5 55.5t-6.5 61.5zM737 698q-14 0 -49 -21t-78.5 -56t-91.5 -83t-89 -101q10 7 19 14t18 13
q45 34 85.5 59t77.5 42q47 57 80 92.5t32 38.5q0 1 -1 1.5t-3 0.5zM513 117q0 -40 9 -71.5t28 -53.5q54 26 108.5 71.5t97 100t69.5 114.5t27 117q0 33 -13.5 49.5t-43.5 16.5q-34 0 -82.5 -24t-93 -68t-75.5 -108.5t-31 -143.5z" />
    <glyph glyph-name="B" unicode="B" horiz-adv-x="972" 
d="M508 516q6 6 8 11.5t2 12.5q12 7 11.5 15.5t2.5 18.5q3 9 10 12t7 16q9 16 18 30.5t18 27.5q-84 -24 -164.5 -65t-143.5 -85.5t-101.5 -86.5t-38.5 -67q0 -23 20 -44t83 -21q21 0 49.5 3t55.5 14t50.5 32.5t35.5 56.5q5 4 8 0.5t3 -5.5q-23 -58 -73 -85t-129 -27
q-65 0 -89.5 23.5t-24.5 51.5q0 30 40 74.5t105.5 90t150 87t171.5 64.5q31 38 61 54t57 16q24 0 35.5 -16t12.5 -32q28 -1 59 -8t56.5 -23.5t42 -43t16.5 -65.5q0 -52 -34 -109.5t-85 -101.5q30 -26 47.5 -64t18.5 -84v-12.5t-1 -10.5q-9 -11 -6.5 -20.5t-2.5 -16.5
q2 -4 1 -8t-3 -11q-4 0 -10.5 -2.5t-9.5 -9.5q5 -3 7 -7t2 -7q-7 -22 -19 -42t-26 -36v-2v-2q0 -40 -28 -69.5t-54 -47.5q-3 0 -4.5 2t-1.5 4q27 20 40 38t17 46q-29 -24 -63 -41t-66.5 -27t-60.5 -14.5t-47 -4.5q-72 0 -98.5 28.5t-25.5 55.5q0 26 15.5 50t43 42t65.5 29
t82 11q52 0 96.5 -13t68.5 -38q13 28 21 61t8 73q0 34 -9.5 67t-28.5 58q-38 -27 -80.5 -43.5t-84.5 -16.5q-37 0 -59 11t-22 40q0 27 30 55.5t102 28.5q38 0 71.5 -10t59.5 -29q40 40 67 93t27 112q0 21 -5 42.5t-19 39t-40.5 30t-68.5 14.5q0 -12 -1.5 -19.5t-2.5 -9.5
q-2 -1 -4 0t-3 3q1 2 2 9t1 17h-5h-5q-29 0 -59 -4t-61 -11q-25 -40 -52 -117t-52 -206q-21 -109 -66 -188t-98 -129t-109 -73.5t-99 -23.5q-56 0 -91.5 27.5t-35.5 76.5q0 25 9.5 52.5t26 50t40 37t50.5 14.5q44 0 75 -33t31 -82q1 -6 1.5 -11t-0.5 -10q-14 0 -13 -18
t-4 -25q-8 -2 -12.5 -7t-5.5 -12q-5 -6 -11 -10.5t-11 -6.5q-3 0 -5 2t-2 4q5 16 9 37t4 55q0 41 -18.5 73t-48.5 32q-20 0 -38.5 -14t-33 -34.5t-23.5 -46t-9 -47.5q0 -28 11.5 -46t28.5 -28.5t37 -14.5t36 -4q21 0 62 11.5t87 52t91 120.5t75 215q12 53 24.5 96.5
t25.5 77.5zM711 734q-16 0 -37 -10t-46 -45q31 7 62.5 10.5t60.5 3.5q-2 17 -12 29t-28 12zM547 308q0 -25 21 -32.5t49 -7.5q37 0 77.5 16.5t77.5 45.5q-20 22 -47.5 35t-61.5 13q-36 0 -59 -7.5t-35.5 -18.5t-17 -23t-4.5 -21zM431 -23q0 -9 5 -22t18 -24t35 -19t55 -8
q18 0 48 6t63 21t65.5 40t56.5 63q-11 32 -51.5 47.5t-99.5 15.5q-87 0 -141 -36.5t-54 -83.5z" />
    <glyph glyph-name="C" unicode="C" horiz-adv-x="754" 
d="M397 -141q-13 0 -16.5 -3.5t-12.5 -2.5q-8 2 -12.5 3t-8.5 -3q-4 0 -8.5 1.5t-14.5 8.5q-4 1 -7 -1t-7 -5q-26 5 -44.5 18t-28.5 31q-31 12 -49.5 41.5t-18.5 76.5q0 66 35 146.5t94 161.5l-24 -2t-23 -1q-73 0 -112 22t-39 71q0 48 38.5 99t96.5 93t127.5 69t131.5 27
q20 0 33 -4.5t17 -9.5q0 -3 -2 -5t-5 -2q-7 7 -17.5 9t-25.5 2q-54 0 -116 -25t-114.5 -64.5t-87 -89.5t-34.5 -100q0 -53 34 -66.5t76 -13.5q13 0 27 1t28 3q54 71 122.5 137.5t142.5 116.5t152 80.5t150 30.5q15 0 23.5 -5.5t8.5 -18.5q0 -28 -52.5 -79.5t-133.5 -104.5
t-181.5 -99.5t-195.5 -64.5q-51 -76 -77 -152t-26 -146q0 -10 0.5 -19t1.5 -17q21 49 67 104.5t103.5 101.5t122 77t120.5 31q33 0 45 -16t12 -42q0 -49 -49 -112t-116.5 -118.5t-140 -94t-118.5 -38.5q12 -10 30.5 -16t43.5 -6q65 0 119.5 27t91.5 52q2 0 3.5 -3t1.5 -5
q-7 -6 -25.5 -17.5t-43.5 -24.5t-54.5 -25.5t-57.5 -19.5zM482 503q-4 1 -9.5 -0.5t-10.5 -6.5q1 -2 0 -9.5t-7 -12.5q-3 -3 -7.5 -4.5t-10.5 -1.5q-1 -5 -3 -9t-3 -10q-22 -24 -42 -48t-36 -48q91 19 187.5 64t175.5 96t129.5 99t50.5 73q0 9 -7.5 12t-14.5 3
q-91 0 -186 -49.5t-179 -123.5q-4 -3 -8 -5.5t-7 1.5q-4 -10 -6.5 -14t-5.5 -6zM655 308q-58 0 -125.5 -37t-125.5 -90.5t-97.5 -114.5t-42.5 -108q10 -8 26 -12.5t39 -4.5q49 0 114 35t122 84t97 104.5t40 95.5q0 23 -11 35.5t-36 12.5z" />
    <glyph glyph-name="D" unicode="D" horiz-adv-x="1406" 
d="M1108 16q-4 -7 -7.5 -10t-8.5 -3q-7 -7 -16 -7t-16 -1q-9 -1 -10 -5.5t-11 -7.5q-46 -14 -96.5 -21.5t-101.5 -7.5q-161 0 -250.5 35.5t-142.5 77.5q-67 -41 -131.5 -74t-121 -55.5t-105 -34.5t-83.5 -12q-22 0 -37.5 12t-15.5 42q0 36 31 78t79 78t106 60t111 24
q59 0 105.5 -22t89.5 -53q23 15 47 30.5t48 31.5q-57 23 -85 61t-28 84q0 18 3 31.5t15 16.5q-7 15 -7 22t1 11t5 8t17 2q-3 7 -5 14t-1 14q7 9 14.5 15t27.5 4q-4 16 -3.5 20.5t4.5 8.5q67 67 181.5 112.5t280.5 45.5q28 0 61 -3.5t67 -11.5q78 56 144 86.5t115 30.5
q32 0 42 -13.5t10 -27.5q0 -25 -21.5 -47.5t-59.5 -39.5q-3 0 -4.5 2.5t-1.5 6.5q40 19 58 40.5t18 37.5q0 8 -7.5 19t-33.5 11q-46 0 -108 -27.5t-137 -81.5q45 -12 88 -32.5t76.5 -52t54 -75t20.5 -100.5q0 -78 -38.5 -150.5t-104.5 -126.5q-4 -3 -9 -7t-9 -10
q-5 -1 -10.5 -4.5t-10.5 -7.5q-4 -2 -8.5 -5t-12.5 -4q1 -3 -2.5 -6t-8.5 -9q-4 -2 -7.5 -1.5t-8.5 1.5q-4 -5 -7.5 -8t-7.5 -7l-10 -2t-9 0zM512 323q0 -34 19.5 -72t63.5 -63q72 49 141.5 105.5t131.5 116.5q64 63 125.5 116t116.5 93q-29 7 -59.5 10t-59.5 3
q-95 0 -182.5 -19.5t-153 -58t-104.5 -97t-39 -134.5zM742 141q-44 1 -81 6.5t-67 15.5q-25 -18 -49.5 -35t-49.5 -33q32 -23 66.5 -46.5t75 -42t91 -30.5t113.5 -12q128 0 225.5 38t162.5 96t98 129t33 136q0 53 -19 95t-51.5 73t-75.5 52t-90 33q-54 -40 -116 -94
t-129 -120q-62 -61 -129 -118t-135 -106q25 -11 56.5 -17.5t71.5 -6.5q116 0 205 43t155 108q4 0 3.5 -1t-0.5 -4q-27 -29 -64 -57.5t-82.5 -51t-100 -36.5t-117.5 -14zM-33 -56q0 -14 7 -28t33 -14q24 0 66.5 12.5t97.5 35.5t121.5 56.5t137.5 75.5q-43 36 -75 63.5
t-79 27.5q-49 0 -104 -23t-100 -57t-75 -74t-30 -75z" />
    <glyph glyph-name="E" unicode="E" horiz-adv-x="757" 
d="M362 -46q-28 -8 -56.5 -12.5t-54.5 -4.5h-7.5h-7.5q-4 -12 -6 -23.5t-2 -21.5q0 -25 13.5 -47.5t57.5 -22.5q34 0 56.5 6t51.5 20q1 -1 2.5 -3t1.5 -4q-13 -7 -42.5 -19t-70.5 -12q-17 0 -36 3.5t-35.5 13t-27 25.5t-10.5 40q0 11 2.5 24t7.5 26q-55 10 -87.5 42
t-32.5 80q0 13 1.5 25t5.5 24q3 10 6 19t4 19q7 7 12.5 11.5t17.5 1.5q-4 14 -1.5 21t6.5 12q37 46 90 82t106 58q-12 10 -18 23.5t-6 29.5v2.5v2.5q-12 -2 -23.5 -4t-21.5 -3q-8 -1 -15.5 -1t-13.5 2q-7 -4 -12.5 -5.5t-12.5 -2.5q-6 7 -12.5 9t-12.5 -4q-4 -1 -7.5 -1
t-6.5 3q0 9 -3.5 11t-15.5 -6q-21 9 -31.5 24.5t-10.5 32.5q0 39 27 79.5t66.5 72.5t86.5 53t87 21q11 0 19.5 -4.5t12.5 -15.5q0 -3 -3 -4.5t-7 -0.5q-1 6 -6 11.5t-15 5.5q-28 0 -66.5 -20t-72 -51.5t-57.5 -71t-24 -78.5q0 -28 19 -38.5t44 -10.5q19 0 42 2.5t48 6.5
q8 49 58.5 103t124 98.5t162 73.5t173.5 29q30 0 44 -9t14 -22q0 -30 -50.5 -69.5t-127 -78.5t-169.5 -73t-177 -53q-1 -3 -1 -5.5v-5.5q0 -12 2.5 -23t8.5 -20q24 7 46.5 11.5t40.5 4.5q27 0 35.5 -8t8.5 -18t-8 -16.5t-19 -10t-22.5 -4.5t-17.5 -1q-29 0 -52 4.5t-39 14.5
q-40 -18 -76.5 -47t-64.5 -64.5t-45 -76.5t-17 -84t19.5 -66.5t48.5 -33.5q23 54 73.5 115.5t114.5 114t134.5 87t133.5 34.5q45 0 55 -20t10 -38q0 -32 -23.5 -69.5t-63 -73.5t-91 -68.5t-106.5 -55.5q-5 1 -13 -0.5t-12 -9.5q-5 -4 -14.5 -5.5t-19.5 -0.5q-3 -6 -8 -9.5
t-13 -3.5zM821 703q-60 0 -136 -25.5t-144.5 -66t-119.5 -92t-62 -101.5q81 19 171.5 52t166 70t125 74t49.5 65q0 13 -14 18.5t-36 5.5zM454 356q-19 0 -39.5 -3.5t-40.5 -10.5q9 -9 23 -14.5t34 -5.5q22 0 38.5 5t16.5 15q0 5 -6.5 9.5t-25.5 4.5zM661 297
q-59 0 -124.5 -35t-124 -86.5t-105 -112.5t-66.5 -112q4 -1 8.5 -1h8.5q70 0 150.5 30.5t148.5 75.5t113 97.5t45 96.5q0 29 -16 38t-38 9z" />
    <glyph glyph-name="F" unicode="F" horiz-adv-x="1286" 
d="M579 -15q-5 -13 -13 -22t-18 -16q-46 -28 -101 -42.5t-124 -14.5q-46 0 -88.5 8t-75 24.5t-52 40.5t-19.5 55q0 32 23.5 66.5t60 62.5t81.5 46.5t88 18.5q18 0 30.5 -8t19.5 -20t10 -25.5t3 -25.5q0 -57 -31.5 -94t-68.5 -59q-4 0 -6.5 1.5t-2.5 8.5q34 29 44.5 65.5
t10.5 78.5q0 31 -8 47t-22 16q-30 0 -68.5 -16.5t-72.5 -42.5t-57 -57.5t-23 -61.5q0 -29 18.5 -51t49.5 -37t71.5 -22.5t84.5 -7.5q76 0 133.5 21t101.5 57.5t78 86t65 106.5q-34 -10 -64.5 -17t-54.5 -10q-4 2 -3.5 4.5t1.5 5.5q26 4 59.5 12.5t68.5 18.5q19 34 37 69.5
t38 72.5q2 5 3 9.5t1 8.5q0 9 -8.5 13.5t-31.5 4.5q-21 0 -57 -2.5t-82 -5t-100.5 -5t-113.5 -2.5q-137 0 -218.5 17.5t-81.5 63.5q0 28 29 52t79 41t117.5 27t143.5 10q42 0 95 -1t111.5 -2.5t121.5 -3.5l126 -4q66 94 140.5 149t169.5 55q43 0 63 -9.5t20 -18.5
q0 -4 -3.5 -7t-7.5 -3q-7 14 -23 19.5t-49 5.5q-90 0 -150 -49.5t-117 -142.5q75 -2 146 -4.5t130 -3.5q68 42 162 69t214 27q36 0 51.5 -7t15.5 -19q0 -14 -27 -28.5t-71.5 -26.5t-103.5 -20t-122 -8h-47t-50 1q-61 -41 -102 -90t-65 -93.5t-34.5 -80t-10.5 -49.5
q0 -7 1.5 -11t5.5 -4t9.5 3t6.5 3q2 0 3 -2t1 -3q-5 -7 -12.5 -12t-17.5 -5q-11 0 -23 8t-12 33q0 23 11.5 59.5t36.5 78t65.5 85.5t96.5 81q-60 1 -127 3.5t-138 5.5q-19 -34 -40.5 -72.5t-45.5 -81.5q7 0 14.5 -0.5t13.5 -1.5q1 -3 0 -6.5t-3 -4.5q-4 1 -13.5 1.5
t-13.5 0.5h-2h-2q-4 -7 -7 -13t-7 -13q-21 -38 -41.5 -74t-39.5 -68q29 10 54.5 21.5t44.5 23.5q8 13 14.5 24.5t12.5 21.5q10 16 24.5 29t37.5 13q4 0 7 -3.5t3 -7.5q0 -15 -7.5 -31.5t-20.5 -35.5q-5 -12 -14.5 -18.5t-10.5 -12.5q-25 -7 -26 -23.5t-5 -23.5
q-7 -8 -16 -16t-18 -18q-25 -32 -50.5 -65.5t-40.5 -65.5q-5 0 -7.5 1t-3.5 5q38 78 64 127t45 80q-21 -10 -45.5 -20.5t-49.5 -19.5q-23 -37 -46 -71t-46 -62q-10 -4 -17.5 -9t-5.5 -16q-10 -10 -16 -19t-17 -11q-5 -9 -12 -12.5t-19 -4.5zM1612 626q-108 0 -192 -24.5
t-145 -62.5q23 -1 43.5 -1h36.5q65 0 122.5 8t99.5 19t66.5 23.5t24.5 21.5q0 7 -12.5 11.5t-43.5 4.5zM105 430q0 -38 77.5 -54t211.5 -16q81 0 142 3t109 7t88.5 8t80.5 5q24 43 48 82.5t48 73.5q-110 4 -225 7t-222 3q-81 0 -147.5 -10.5t-113 -27.5t-72 -38.5
t-25.5 -42.5z" />
    <glyph glyph-name="G" unicode="G" horiz-adv-x="728" 
d="M599 725q11 0 16.5 -3.5t5.5 -10.5q0 -4 -1.5 -9t-4.5 -9q-3 -1 -6.5 0.5t-4.5 4.5q2 4 3.5 6t1.5 5t-3 4t-9 1q-28 0 -82 -25t-107 -63.5t-93 -86t-40 -92.5q0 -26 15.5 -42.5t50.5 -16.5h10.5t10.5 1q28 54 82.5 109.5t117 99.5t124.5 71.5t103 27.5q28 0 39 -13
t11 -28q0 -29 -41 -68t-103 -77.5t-135 -72t-137 -49.5q-4 -13 -6.5 -27t-2.5 -27q0 -25 12 -34t31 -9q28 0 56 12.5t48 40.5q7 20 12 34t10 24q10 12 26 11.5t22 -3.5q-22 -56 -31.5 -94.5t-17.5 -78.5q-1 -8 -3.5 -18t-3.5 -20q-5 -21 -13.5 -30.5t-22.5 -20.5
q2 -10 2.5 -20t-0.5 -19q7 -3 13.5 -6t13.5 -7q1 -2 0 -4.5t-4 -4.5q-5 3 -11.5 6t-13.5 6q-2 -6 -4.5 -11.5t-5.5 -10.5q1 -13 -2 -22.5t-7 -17.5q-22 -51 -50 -92.5t-56 -72.5q-74 -78 -158 -105.5t-152 -27.5q-93 0 -130.5 34t-37.5 72q0 42 35 92.5t97 93.5t146.5 72.5
t183.5 29.5q30 0 56 -3t48 -8q7 22 13.5 47t12.5 51q7 36 14 53.5t10 28.5q2 10 -2 9.5t-9 -6.5q-16 -14 -52.5 -35t-79.5 -21q-36 0 -52.5 17.5t-16.5 42.5q0 16 4.5 33t11.5 34q-5 -1 -10.5 -1h-10.5q-63 0 -89 19.5t-26 50.5q0 46 47.5 96t110 90t126 66.5t95.5 26.5z
M789 686q-36 0 -89.5 -24t-107 -63.5t-99.5 -91t-66 -105.5q61 17 131.5 49t130 69t99.5 73.5t40 62.5q0 14 -11.5 22t-27.5 8zM-53 -154q0 -46 45.5 -70.5t111.5 -24.5q61 0 117.5 15.5t106.5 56t93.5 110.5t77.5 178q-22 5 -48 8.5t-53 3.5q-50 0 -96.5 -8t-88.5 -22
q-5 -1 -10 -2.5t-9 1.5q-4 -2 -8 -5t-7 -7q-4 -1 -7 -1.5t-7 3.5q-1 -4 -5 -8t-7 -5q-4 1 -8.5 -1.5t-12.5 -0.5q0 -5 -3.5 -8.5t-7.5 -6.5q-80 -44 -127 -102.5t-47 -103.5z" />
    <glyph glyph-name="H" unicode="H" horiz-adv-x="880" 
d="M664 729q31 0 46.5 -16.5t15.5 -33.5v-1q10 4 21.5 6t22.5 2q22 0 39 -16t17 -46q0 -22 -21 -58t-62 -77t-103 -84t-143 -77q-15 -51 -25 -89.5t-15.5 -69t-7.5 -56t-2 -51.5q0 -28 6.5 -54.5t20.5 -47t35 -33t50 -12.5q8 0 16.5 1.5t17.5 4.5q-18 25 -27.5 57.5
t-9.5 73.5q0 48 14 95.5t38 84.5t56.5 60t69.5 23q20 0 32 -10.5t18.5 -26t8.5 -32.5t2 -29q0 -30 -12.5 -70t-34 -81t-51 -79t-64.5 -63q23 -27 57 -42.5t76 -15.5q66 0 106.5 22t65.5 48q3 0 4 -2t1 -6q-28 -24 -69.5 -48t-119.5 -24q-49 -1 -86.5 12t-62.5 39
q-16 -8 -33.5 -12.5t-34.5 -4.5q-22 0 -46 8t-43 26.5t-31.5 50t-12.5 78.5q0 72 19 139.5t42 123.5q-4 -1 -9 -3t-9 -3q-7 -16 -13 -29t-10 -14q-3 -20 -12 -51t-19.5 -61t-19.5 -53.5t-11 -28.5q-2 -3 -2.5 -1l-0.5 2q13 62 29 121.5t26 92.5l1.5 3.5t2.5 9.5q-4 -1 -9 -3
t-9 -3q-36 -113 -84 -185t-94 -112t-83.5 -55t-51.5 -15q-26 0 -41.5 15t-15.5 42q0 90 85 168t236 135q1 3 1.5 6.5t1.5 7.5q10 43 21 74t26 73l14 30t14 29q-8 -1 -16.5 -3t-16.5 -3q-53 -7 -99.5 -17t-84.5 -22q-4 -1 -8.5 -2t-7.5 0q-6 -4 -10.5 -6.5t-8.5 -3.5
q-4 -2 -9.5 -3t-12.5 1q-5 -4 -9 -8t-6 -10q-4 0 -9 -1t-11 1q-1 -7 -4 -9.5t-6 -4.5q-28 -19 -43 -39t-15 -42q0 -17 13 -25.5t35 -8.5q23 0 60 10t74.5 28.5t70.5 46.5t47 64q4 1 7.5 0.5t4.5 -6.5q-12 -26 -42 -54t-68 -50t-79 -36t-75 -14q-21 0 -40 9.5t-19 35.5
q0 48 79.5 98.5t275.5 76.5q10 1 19.5 3.5t19.5 4.5q12 24 26 47t28 43q4 5 8.5 10t11.5 6q4 12 9.5 20.5t9.5 14.5q8 6 14 11.5t17 6.5q-1 7 5.5 9t6.5 9q22 16 45 24.5t48 8.5zM664 718q-34 0 -60.5 -15t-48.5 -40.5t-40 -60t-34 -72.5q36 9 66 19.5t55 21.5q25 34 53 61
t59 41v3v3q0 13 -11.5 26t-38.5 13zM526 420q-7 -22 -13.5 -42t-11.5 -38q69 30 127 69t99.5 78t64.5 75.5t23 61.5q0 21 -11.5 36t-33.5 15q-11 0 -22.5 -2.5t-22.5 -6.5q-6 -24 -35 -52.5t-86 -53.5q-19 -28 -39 -63t-39 -77zM710 660q-22 -11 -45.5 -31.5t-45.5 -48.5
q39 19 61.5 40t29.5 40zM447 374q4 4 10 6l6 2h3.5t3.5 -4q-3 -10 -8 -25.5t-11 -31.5q4 1 8 2.5t8 2.5l3 1q11 26 22 49.5t20 43.5q15 31 34.5 65.5t42.5 67.5q-23 -9 -51.5 -18t-61.5 -17q-6 -14 -11.5 -29t-11.5 -30q-10 -23 -18 -45.5t-16 -49.5q-4 -15 -8 -29.5
t-8 -28.5q4 1 9.5 3t9.5 3q5 16 12.5 35.5t12.5 26.5zM591 51q0 -34 8.5 -63t24.5 -51q29 19 58 50.5t51.5 69t36.5 79.5t14 81q0 10 -1.5 25t-6.5 29t-15 23.5t-27 9.5q-26 0 -51.5 -18.5t-45.5 -51.5t-33 -80t-13 -103zM41 -15q0 -22 12 -33.5t34 -11.5q13 0 45 13
t71 49.5t78.5 102.5t66.5 171q-60 -23 -115.5 -52.5t-98 -65.5t-68 -79t-25.5 -94z" />
    <glyph glyph-name="I" unicode="I" horiz-adv-x="436" 
d="M598 710q19 0 25 -8.5t6 -18.5q0 -19 -35.5 -46t-119.5 -60q-10 -32 -27.5 -74.5t-42.5 -83.5q-22 -91 -51 -185.5t-63 -170.5t-74 -124.5t-85 -48.5q-37 0 -68 29.5t-31 90.5q0 47 18 85t44 64t54 40t48 14q19 0 29 -10t10 -28q0 -29 -14 -49.5t-31 -29.5q-4 0 -7 1.5
t-5 3.5q0 14 12.5 38t12.5 43q0 7 -2.5 14t-12.5 7q-13 0 -37.5 -13t-48.5 -38t-41.5 -61.5t-17.5 -82.5q0 -29 8.5 -49.5t21.5 -33t28.5 -18t29.5 -5.5q41 0 74 57t60 136.5t50 166t44 144.5q11 31 23 58.5t23 52.5q3 6 7.5 11.5t16.5 7.5q0 7 1.5 14t3.5 12
q-19 -7 -41 -14t-46 -14q-124 -50 -174 -102.5t-50 -88.5q0 -11 7.5 -16t17.5 -5q16 0 37 7t41 18t36 24t21 25q10 19 15 31t12 22q6 3 9.5 1.5t6.5 -5.5q-8 -24 -18.5 -40.5t-21.5 -26.5q-10 -11 -28.5 -23t-38 -21.5t-39 -16t-32.5 -6.5q-22 0 -29 10.5t-7 21.5
q0 29 19 57.5t50 54.5t72 48.5t85 39.5q22 7 46.5 15t48.5 16q3 1 5.5 2t5.5 2q4 4 8.5 7t9.5 5q-4 12 -1.5 18t6.5 11t8.5 10.5t8.5 10.5q9 -1 11 6.5t6 11.5q3 3 7.5 5.5t13.5 2.5q-1 7 3.5 12t9.5 8q18 13 34 18.5t29 5.5zM485 612q-1 -4 -3 -10l-4 -12q57 22 98.5 46
t41.5 47q0 5 -5 10.5t-15 5.5q-18 0 -35 -9t-31 -22.5t-26 -28.5t-21 -27z" />
    <glyph glyph-name="J" unicode="J" horiz-adv-x="525" 
d="M703 710q12 0 19 -5t7 -17q0 -28 -52.5 -72t-177.5 -93q-5 -10 -10 -21t-10 -23q-4 -10 -10 -11.5t-13 -6.5q1 -28 -1 -40.5t-5 -21.5q-10 -4 -11.5 -15t-14.5 -12q7 -19 6 -31t-3 -22q-4 -14 -7.5 -30t-6.5 -32q-7 -26 -14 -51t-14 -48q30 22 60 44.5t59 43.5
q4 -1 5.5 -4t0.5 -5q-31 -22 -64 -46.5t-67 -49.5q-37 -108 -82.5 -184.5t-94 -124.5t-99 -70t-96.5 -22q-19 0 -29 7t-10 21q0 20 28.5 55t76.5 80t111.5 97.5t132.5 105.5q13 37 25 76t23 81q19 77 42 137.5t48 106.5q-19 -7 -39 -13.5t-41 -13.5q-92 -29 -157.5 -64
t-106.5 -68.5t-60 -63t-19 -47.5q0 -7 6 -12.5t20 -5.5q28 0 65.5 16t73.5 38.5t67 47t46 41.5q14 24 19.5 38t16.5 15q1 -1 2.5 -2t2.5 -3q0 -8 -6 -21t-26 -32q-7 -10 -37 -35t-69.5 -50t-82 -44.5t-73.5 -19.5q-13 0 -24.5 6.5t-11.5 22.5q0 24 25 58t70.5 69t110.5 67.5
t144 54.5q24 7 46.5 15.5t42.5 15.5q39 68 80 107t75.5 58t58.5 23.5t29 4.5zM704 699q-10 0 -31 -4t-48.5 -20t-58.5 -49.5t-62 -91.5q115 46 164.5 86.5t49.5 67.5q0 5 -3 8t-11 3zM-21 -232q0 -9 6 -13t19 -4q48 0 91.5 24t81.5 68t71.5 106.5t61.5 138.5
q-65 -50 -125 -99.5t-105.5 -92.5t-73 -76.5t-27.5 -51.5z" />
    <glyph glyph-name="K" unicode="K" horiz-adv-x="824" 
d="M625 710q16 0 23 -10.5t7 -25.5q0 -9 -4.5 -23.5t-18.5 -31t-40.5 -34.5t-70.5 -36q-12 -35 -23.5 -82t-21.5 -106q-24 -116 -53.5 -208.5t-66.5 -156.5t-84 -98t-104 -34q-29 0 -50 15t-21 46t18 69t46 69t56.5 52t52.5 21q19 0 27 -12t8 -22q0 -28 -20.5 -53.5
t-42.5 -40.5q-2 0 -4 2t-2 4q17 23 28 47t11 40q0 12 -2.5 18t-12.5 6q-14 0 -39.5 -20.5t-50.5 -48.5q-26 -31 -44 -66.5t-18 -64.5q0 -25 17 -37.5t43 -12.5q92 0 151.5 120t103.5 367q10 50 23 93t28 77q-28 -8 -61 -16t-72 -15q-51 -9 -101 -29.5t-90 -46t-64.5 -53
t-24.5 -51.5q0 -13 12.5 -21.5t35.5 -8.5q32 0 63 10t57.5 24.5t48 30.5t33.5 28q8 18 20 30.5t19 14.5q2 -1 4.5 -3t2.5 -6q-7 -12 -30.5 -35.5t-57 -46.5t-75 -40.5t-85.5 -17.5q-24 0 -41.5 9t-17.5 32q0 27 26 57t67 56t93.5 47t103.5 30q40 7 75 15.5t64 17.5
q37 86 79 126t67 40zM625 699q-17 0 -44.5 -28.5t-55.5 -109.5q63 27 91 56.5t28 56.5q0 12 -5 18.5t-14 6.5zM778 586q23 0 31.5 -10t8.5 -25q0 -30 -31 -58t-71 -42q-3 1 -4 4t0 5q36 13 65 39.5t29 51.5q0 13 -6.5 18.5t-21.5 5.5q-18 0 -34.5 -7t-30.5 -20
q-4 -4 -9.5 -8.5t-16.5 -11.5q-3 -3 -2.5 -7t-3.5 -9q-4 -4 -7.5 -4.5t-7.5 -5.5q-2 -13 -5 -19t-6 -11q-4 -6 -9.5 -12t-19.5 -12q2 -5 3.5 -10.5t-1.5 -11.5q-10 -14 -19 -28t-18 -26q-1 -60 -28.5 -95t-70.5 -67q7 3 14.5 4t13.5 1q21 0 30 -13t9 -30q0 -21 -8.5 -45.5
t-18 -51.5t-18 -56t-8.5 -58q0 -28 14.5 -42.5t38.5 -14.5q35 0 72.5 22t68 56.5t50 78t19.5 86.5q0 31 -15 47t-43 16q-19 0 -39 -11.5t-36 -30.5t-26 -44t-10 -53q0 -37 16 -47t32 -10q10 0 18.5 2.5t14.5 6.5q3 0 4.5 -2t0.5 -5q-10 -10 -22 -15t-23 -5q-25 0 -40 17
t-15 54q0 29 10.5 57t28 49.5t40 34.5t46.5 13q40 0 54.5 -24t14.5 -50q0 -44 -20.5 -89.5t-52.5 -82.5t-73.5 -60.5t-83.5 -23.5q-44 0 -67.5 22t-23.5 60q0 25 9 54t19 57t19 51.5t9 38.5q0 13 -5.5 20t-19.5 7q-6 0 -12 -3t-13 -10q-4 0 -5.5 2t-1.5 6q34 28 53 63t46 99
q25 62 56 105.5t61 70.5t57.5 39.5t46.5 12.5z" />
    <glyph glyph-name="L" unicode="L" horiz-adv-x="1030" 
d="M592 549q24 0 34 -8.5t17 -21.5q-1 -4 -4 -5t-7 -1q-7 13 -15 18.5t-25 5.5q-30 0 -67.5 -20t-69.5 -51.5t-54 -70t-22 -74.5q0 -50 23 -67.5t72 -17.5h3h3q19 16 37.5 32.5t36.5 33.5q78 72 154.5 126t146.5 90t132.5 54t112.5 18q18 0 25.5 -6.5t7.5 -19.5
q0 -20 -60 -71t-150.5 -106t-198.5 -101.5t-203 -57.5q-37 -35 -75.5 -66t-78.5 -58q25 -26 43.5 -59t38 -61.5t45.5 -48.5t66 -20h1.5h1.5q-1 8 -2.5 17.5t-1.5 19.5q0 68 30.5 127.5t76 103.5t99.5 69.5t100 25.5q42 0 58 -21t16 -52q0 -30 -26 -72.5t-69 -84.5
t-98.5 -78.5t-113.5 -54.5q9 -43 38.5 -64t78.5 -21q57 0 101 18.5t73 42.5q5 0 6.5 -2.5t0.5 -7.5q-7 -4 -15 -10t-15 -10q-6 -4 -8.5 -2.5t-6.5 0.5q-13 -13 -20.5 -18t-14.5 -7q-5 -2 -11.5 -3.5t-13.5 1.5q-10 -4 -16.5 -10t-15.5 -7q-7 -1 -14 3.5t-17 3.5
q-7 -10 -15 -12.5t-17 -2.5q-23 0 -48 5t-47 16.5t-40 29.5t-27 43q-7 -1 -13 -1h-12q-53 0 -85 19.5t-51.5 47.5t-33 61t-30.5 60q-60 -40 -118 -70.5t-107 -51t-86.5 -31t-57.5 -10.5q-16 0 -25.5 8t-9.5 24q0 31 29 66t74 64t100.5 48t108.5 19q28 0 50.5 -7.5
t40.5 -20.5q31 22 62.5 47.5t62.5 51.5q-48 1 -77 12t-43.5 25.5t-19 30.5t-4.5 27q0 15 5 31t15 32q3 6 8 10.5t17 6.5q-4 9 -0.5 14.5t7.5 11.5q6 0 11.5 1t9.5 4q-1 11 3 17t9 10q7 7 16.5 12t25.5 6q-4 9 -0.5 12.5l7.5 7.5q35 24 71 38.5t64 14.5zM585 293
q-12 -13 -24.5 -26.5t-25.5 -25.5q95 13 199 59.5t190 99.5t142 100.5t56 63.5q0 7 -5 11t-18 4q-67 0 -138.5 -28.5t-139 -71t-129 -93t-107.5 -93.5zM627 -39q0 -9 0.5 -18t1.5 -16q53 16 107 51.5t96.5 76.5t69 81.5t26.5 68.5q0 20 -11.5 41t-51.5 21q-47 0 -90.5 -27.5
t-76 -71t-52 -98.5t-19.5 -109zM-50 -43q0 -8 6 -14.5t18 -6.5q25 0 62 12.5t82.5 35.5t98 56t107.5 73q-13 13 -30.5 21.5t-42.5 8.5q-56 0 -110 -19t-96.5 -47t-68.5 -60.5t-26 -59.5z" />
    <glyph glyph-name="M" unicode="M" horiz-adv-x="903" 
d="M518 648q-1 -10 -10 -29.5t-22 -44.5q-7 -21 -15.5 -41t-18.5 -41q-15 -32 -37 -70t-46.5 -83.5t-50 -100t-48.5 -119.5q37 49 80 127t91 161t102 160t111 125q22 34 36.5 51t21.5 22q7 -1 9.5 -3t3.5 -7q-10 -19 -28.5 -41.5t-31.5 -32.5q-51 -71 -101.5 -169
t-89.5 -196t-63 -185.5t-24 -138.5q0 -46 14.5 -68.5t49.5 -22.5q12 0 25 3.5t27 10.5q-10 15 -15.5 36.5t-5.5 50.5q0 27 3.5 46t9.5 39.5t14.5 48t18.5 72.5q9 41 28.5 78t44.5 64.5t53.5 44t54.5 16.5q34 0 52 -23.5t18 -60.5q0 -49 -21.5 -108t-56 -115t-77.5 -104
t-86 -77q14 -13 35 -21t49 -8q40 0 75 17t63 41.5t49 51.5t32 48q2 0 5 -0.5t4 -4.5q-21 -34 -47 -67t-57 -58t-66 -40.5t-72 -15.5q-18 0 -47.5 6t-51.5 34q-15 -7 -30 -11.5t-28 -4.5q-19 0 -40 4.5t-38 17.5t-28.5 36.5t-11.5 60.5q0 7 1 17.5t3 19.5q8 7 10 13.5t0 14.5
q-8 21 -1 26.5t8 15.5q12 7 11 16.5t9 13.5q-4 12 -2.5 20t4.5 15q6 2 10.5 11.5t11.5 10.5q-6 11 -4 18.5t4 14.5q26 60 58.5 121.5t63.5 115.5t58 98.5t43 70.5q-40 -36 -83.5 -102.5t-87.5 -142t-86.5 -151.5t-80.5 -131q-28 -40 -41 -73.5t-26 -59.5q-4 -1 -11 0t-9 9
q22 46 37 75.5t24 55.5q21 63 46.5 115.5t51.5 101t53.5 97.5t53.5 103q-39 -61 -73 -116.5t-67 -111.5q-97 -167 -163 -258t-120 -91q-16 0 -37 10.5t-21 43.5q0 34 24 52.5t46 18.5q4 -1 3.5 -4t-1.5 -6q-15 1 -38 -13t-23 -48q0 -25 18 -34t29 -9q32 0 67 34.5t70.5 85.5
t69.5 111t64 111q13 23 33.5 55.5t43 68l45 71t39.5 64.5l17.5 45.5t14.5 33.5q5 3 9.5 1.5t5.5 -6.5zM509 3q0 -22 5.5 -40t16.5 -31q41 27 83 74t76 101t56 112t22 108q0 22 -12.5 47.5t-46.5 25.5q-21 0 -45.5 -12t-48 -36t-43.5 -60.5t-32 -85.5q-10 -40 -16 -66
t-9.5 -46.5t-4.5 -41t-1 -49.5z" />
    <glyph glyph-name="N" unicode="N" horiz-adv-x="1031" 
d="M546 710q5 0 9.5 -2.5t5.5 -7.5q-1 -14 -26 -52.5t-59 -100.5q-4 -27 -21 -78t-38 -109.5t-42 -115.5t-32 -96q19 26 80.5 150.5t154 262.5t213 249.5t254.5 111.5q37 0 60.5 -11.5t37 -30t18 -41t4.5 -44.5q0 -31 -10.5 -69.5t-29.5 -80.5q6 -13 8 -27.5t2 -26.5
q0 -54 -34 -113t-93 -122q-2 -1 -4 0t-3 4q19 20 38.5 48.5t35.5 60t26 63.5t10 58v12t-1 10q-34 -68 -84.5 -137.5t-108 -125t-119.5 -91t-119 -35.5q-48 0 -70.5 30t-22.5 62q0 58 41.5 127.5t103.5 128.5t135.5 99t137.5 40q37 0 61.5 -9.5t39.5 -24.5q4 10 7 20.5
t5 20.5q1 6 4 13t13 14q-7 6 -8 13t0 14q1 6 1 12v11q0 7 2 15t7 12q-8 8 -11.5 14t-0.5 14q4 15 -4 20.5t-3 13.5q-9 1 -15.5 7t-8.5 13q-6 -3 -13 -2t-12 5q-6 7 -11 5t-12 -2q-141 0 -263 -118.5t-214.5 -264t-154 -274t-82.5 -148.5q-7 -31 -14.5 -58t-23.5 -56
q-13 0 -21.5 5t-9.5 18q5 16 13.5 34t21.5 39q5 59 22 114t38.5 106.5t45 101t41.5 97.5q-31 -43 -75 -123.5t-108 -178.5q-32 -49 -71.5 -104t-79 -101.5t-75.5 -77t-62 -30.5q-21 0 -33 9t-12 28q0 16 12.5 30t29.5 21q2 0 3.5 -1.5t1.5 -4.5q-7 -4 -16.5 -15.5
t-9.5 -28.5q0 -10 5.5 -18.5t18.5 -8.5q22 0 56.5 29.5t73 74.5t78.5 100t72 106q60 90 104 169t98 160q14 53 36.5 100.5t54.5 69.5zM597 315q0 -43 27 -62t56 -19q57 0 119 39t119 99.5t104.5 135.5t74.5 147q-14 26 -39.5 35t-53.5 9q-62 0 -134 -39t-132 -97
t-100.5 -125t-40.5 -123z" />
    <glyph glyph-name="O" unicode="O" horiz-adv-x="608" 
d="M534 710q3 -1 3 -3t-1 -5q-56 -12 -129.5 -78t-138.5 -161t-110 -208t-45 -217q0 -78 23 -99.5t48 -21.5q36 0 71 21.5t69 57.5q3 4 7.5 4.5t8.5 5.5q1 7 4 10t4 8q3 4 6.5 5t4.5 8q4 6 6.5 9.5t5.5 7.5q4 1 6 2.5t1 5.5q3 6 5.5 9.5t5.5 7.5q2 3 5 5.5t12 2.5
q-4 7 -1.5 10t2.5 9q2 4 5.5 8t9.5 8q2 4 2 7.5t2 7.5q16 25 31.5 51.5t31.5 53.5q20 33 38.5 67t34.5 68q-13 -18 -31 -28.5t-44 -10.5q-39 0 -62 24.5t-23 67.5q0 37 22.5 76.5t56.5 71.5q26 24 41.5 48t28 42.5t25.5 30t34 11.5q28 0 41 -20t13 -45q0 -19 -11 -61.5
t-32.5 -98t-52 -121t-69.5 -128.5q-38 -68 -78 -130.5t-81 -110.5t-85 -76.5t-90 -28.5q-56 0 -85 40.5t-29 106.5q0 111 52.5 226t127.5 210t158.5 160t144.5 77zM471 380q6 -4 8 -10t3 -15q9 8 16 6.5t13 -1.5q20 0 37.5 13.5t30.5 41.5q35 80 54.5 144t19.5 86
q0 24 -11.5 39t-31.5 15q-19 0 -31 -12t-22.5 -30.5t-21.5 -42t-28 -47.5q-20 -28 -30.5 -52t-14.5 -45q-1 -14 -6 -17t-11 -7q-1 -7 4 -13.5t9 -9.5q0 -7 -0.5 -15t-6.5 -15q10 -1 10 -8.5t10 -4.5z" />
    <glyph glyph-name="P" unicode="P" horiz-adv-x="1084" 
d="M681 325q-32 0 -51 4t-28 11.5t-11.5 18t-2.5 23.5q0 22 15.5 45.5t45.5 42.5t75 31.5t104 12.5q99 0 144.5 -32t58.5 -72q78 32 131 75t53 92q0 28 -24 51t-64 38.5t-93.5 24t-112.5 8.5q-153 0 -291.5 -31.5t-242 -75.5t-165 -93t-61.5 -84q0 -24 36 -46t121 -22
q42 0 75 5.5t59 19.5q2 0 4 -3.5t2 -6.5q-22 -11 -50.5 -17t-54.5 -8h-9t-9 2q-4 -2 -8.5 -3t-8.5 -1t-7 2.5t-7 2.5q-7 -3 -11 -3h-8q-5 1 -9.5 2.5t-9.5 1.5q-5 -1 -9.5 -1.5t-8.5 1.5q-41 7 -69.5 25t-28.5 49q0 42 69.5 94t179 97t247.5 75t275 29q52 0 108.5 -8
t102 -24.5t75.5 -41.5t30 -59q0 -26 -16 -51t-43 -47.5t-64.5 -42.5t-80.5 -37q1 -7 2 -13.5t1 -13.5q0 -6 -1.5 -11.5t-5.5 -9.5q-3 -6 -3.5 -10.5t-3.5 -8.5q-5 -1 -8.5 -6t-7.5 -7q-4 0 -8 -2t-8 -2q-13 0 -20 6.5t-9 11.5q1 5 4.5 5h3.5l3.5 -5.5t8.5 -5.5q6 0 10 12
t4 40v2.5v2.5q-79 -28 -163.5 -43.5t-150.5 -15.5zM762 669q28 0 43 -13.5t15 -35.5q0 -23 -15 -42t-26 -26q-2 0 -5 2.5t-2 6.5q13 7 25 23.5t12 35.5q0 17 -11 27.5t-36 10.5q-45 0 -78 -34t-84 -119q-24 -40 -37 -70.5t-19.5 -59t-10 -60t-9.5 -71.5q-4 -42 -17.5 -77.5
t-24.5 -65.5q-2 -6 -5.5 -11t-12.5 -4q3 -13 -4 -20t-13 -14q-6 -6 -8 -13t-10 -14q-4 -10 -10 -12.5t-17 -5.5q5 -10 1.5 -17t-8.5 -12q-28 -29 -59.5 -47t-60 -27t-53.5 -12t-40 -3q-70 0 -111 39t-41 95q0 29 18.5 63.5t46.5 63.5t61.5 48.5t62.5 19.5q18 0 37.5 -4
t36 -15t27 -31.5t10.5 -52.5q-1 -41 -17 -66t-29 -35q-9 -7 -15 -9t-12 -2q-4 0 -8.5 1.5t-8.5 6.5q13 26 19.5 55t6.5 55q0 32 -11 59t-36 27q-33 0 -65 -20.5t-57 -49t-40.5 -60.5t-15.5 -54q0 -33 14 -56.5t34.5 -37.5t45.5 -20.5t47 -6.5q81 0 131.5 35t80 87t42 112.5
t18.5 110.5q9 86 34 150t64 120q60 87 116 119.5t94 32.5zM599 382q0 -21 12.5 -33.5t69.5 -12.5q66 0 150.5 16t162.5 44q-3 18 -14 37t-31 34.5t-50 25.5t-71 10q-56 0 -99 -11.5t-72 -29.5t-43.5 -39.5t-14.5 -40.5z" />
    <glyph glyph-name="Q" unicode="Q" horiz-adv-x="738" 
d="M508 48q-25 0 -38.5 -10t-18.5 -25q-20 -57 -36 -106t-26 -82q-24 -80 -38.5 -136t-21.5 -99t-9 -78.5t-2 -74.5q-1 -1 -3 -1t-3 1q-1 34 0 87t14 131q7 4 6 11t8 11q-6 7 -6.5 12t0.5 10q1 6 3.5 11.5t12.5 11.5q-7 5 -4.5 10t-2.5 10q1 5 3.5 11t11.5 11
q-7 6 -6.5 11.5t1.5 11.5q2 10 4.5 20.5t5.5 20.5q13 52 31.5 113.5t38.5 124.5q-1 1 -2 1.5t-2 0.5q-23 -33 -51 -65t-59 -57t-64 -40.5t-64 -15.5q-49 0 -80 37t-31 113q0 117 55 236.5t131 214.5t156.5 155t131.5 60q21 0 34 -7t23 -23q-1 -3 -2.5 -5t-5.5 -2
q-10 16 -21 21t-28 5q-52 0 -125.5 -66.5t-140 -165t-113.5 -213t-47 -210.5q0 -64 24.5 -93t59.5 -29q27 0 55.5 13.5t55.5 35t52 50t45 57.5q-27 20 -40.5 56t-14.5 89q-2 100 25.5 179t66 133t80.5 82.5t69 28.5q15 0 25 -12.5t5 -40.5h1q3 5 6 9t6 5q6 0 12.5 -3
t10.5 -7q-21 -49 -46.5 -111.5t-51.5 -130.5t-52 -139t-49 -137q10 -6 22.5 -8.5t24.5 -2.5q49 0 92 22.5t75.5 54t54 65.5t27.5 57q2 2 4.5 1t3.5 -3q-7 -24 -29 -60.5t-55.5 -70.5t-79 -58t-98.5 -24h-4h-3v0zM407 220q0 -40 8.5 -69t23.5 -48q5 9 9.5 18l8.5 17l42 118
t41 111.5t39 97.5t34 78q7 17 11 34.5t4 28.5q0 8 -5 16.5t-17 8.5q-34 0 -59.5 -27t-55.5 -75q-6 -9 -13.5 -18.5t-23.5 -15.5q7 -13 2.5 -20t-11.5 -17q-1 -11 -10.5 -17t-8.5 -16q5 -20 3.5 -33t-4.5 -24q-2 -8 -9 -17.5t2 -17.5l-4 -24t-3 -24q-2 -16 -3 -32.5t-1 -32.5
z" />
    <glyph glyph-name="R" unicode="R" horiz-adv-x="1301" 
d="M504 479q3 1 5 0t3 -3q-22 -53 -88 -70t-153 -17q-84 0 -120.5 15.5t-36.5 42.5q0 29 39 65t113.5 70.5t185 63t251.5 41.5q25 22 48 31.5t40 9.5q23 0 34 -10.5t12 -21.5q19 1 39.5 1h40.5q143 0 202 -27.5t59 -75.5q0 -42 -27 -83.5t-72.5 -77t-107 -63t-130.5 -41.5
q-25 -67 -76.5 -119.5t-102.5 -96t-89.5 -82t-38.5 -78.5q0 -32 16 -42t38 -10q41 0 95.5 14t114.5 38q-8 14 -11.5 28.5t-3.5 27.5q0 75 49 141.5t117 115t140.5 76.5t119.5 28q29 0 42.5 -12t13.5 -30q0 -43 -38.5 -95t-100 -102.5t-140 -97t-156.5 -80.5q12 -28 38.5 -40
t65.5 -12q48 0 86.5 15.5t70.5 39.5q3 0 4 -1.5t1 -4.5q-37 -28 -79.5 -44t-82.5 -16q-51 0 -82 15.5t-47 36.5q-60 -24 -116.5 -38t-100.5 -14q-52 0 -72.5 19.5t-20.5 44.5q0 48 35 89.5t82 83.5t95.5 88.5t76.5 104.5q-18 -2 -36 -3t-36 -1q-40 0 -72.5 4t-53.5 17
q-27 -128 -80 -214t-115 -137.5t-125.5 -73.5t-112.5 -22q-54 0 -85 23.5t-31 69.5q0 43 32 100t79.5 107.5t102 86t99.5 35.5q22 0 36 -10t21.5 -24t10 -29t2.5 -26q0 -34 -9.5 -62t-23.5 -50q-2 -4 -6.5 -7t-15.5 0q4 -12 0.5 -18.5t-7.5 -10.5t-9.5 -6t-15.5 5
q-6 -5 -8.5 -11.5t-3.5 -14.5q-8 -4 -16 -7.5t-15 -4.5q-4 1 -5 3t0 6q10 9 25 26t29 40t23.5 51.5t9.5 59.5q0 33 -9 52.5t-28 19.5q-40 0 -90 -33t-93.5 -81t-73.5 -102t-30 -95q0 -40 28 -61t78 -21q40 0 94 16.5t110 66t107.5 142t85.5 242.5q1 3 1.5 6t1.5 6
q-1 4 -1.5 8.5t-0.5 9.5q0 13 5 25.5t15 22.5q25 87 56 142.5t62 86.5q-142 -15 -248.5 -44t-176.5 -62.5t-105 -66.5t-35 -55q0 -13 12.5 -22t32.5 -14.5t46.5 -8t54.5 -2.5q85 0 143.5 14.5t89.5 64.5zM791 718q-17 0 -32 -7.5t-28 -20.5q23 1 47 2.5t49 2.5q-2 9 -10 16
t-26 7zM858 423q0 -21 -3 -40t-9 -38q46 13 85 34.5t74 47.5q6 4 12.5 7t16.5 1q0 11 8 13.5t4 12.5q5 4 11 8t18 3q-3 12 -0.5 18.5t6.5 11.5q4 6 11 7t14 7q-4 15 -2.5 23t3.5 15q3 10 4.5 20t1.5 20q0 47 -41.5 69.5t-154.5 22.5q-52 0 -101.5 -2t-94.5 -6
q-24 -31 -44.5 -79.5t-40.5 -106.5q25 10 53 16.5t57 6.5q53 0 82.5 -25.5t29.5 -66.5zM592 367q-1 -4 -2 -9.5t-2 -9.5q21 -14 54 -17.5t70 -3.5q20 0 39.5 1.5t37.5 4.5q9 21 14 44.5t5 48.5q0 45 -16.5 61.5t-45.5 16.5q-31 0 -61 -8t-55 -21q-9 -26 -18.5 -53t-19.5 -55
zM819 11q0 -13 1.5 -25t4.5 -22q76 33 153 78t138 94t99.5 99t38.5 93q0 14 -11 22.5t-34 8.5q-44 0 -111 -29t-128.5 -77t-106 -111t-44.5 -131z" />
    <glyph glyph-name="S" unicode="S" horiz-adv-x="687" 
d="M758 710q10 0 16.5 -6.5t6.5 -19.5q0 -58 -54 -135t-139 -165q0 -41 -1.5 -100t-12.5 -113q-1 -5 -4 -10t-14 -10q0 -9 1 -15t3 -12q1 -7 -1.5 -12.5t-7.5 -9.5q1 -5 0 -10t-2 -9q-32 -87 -115.5 -140.5t-197.5 -52.5q-33 0 -63 12t-55 32q-50 -49 -96 -98t-84 -96
q-4 0 -6.5 2t-2.5 6q35 44 81.5 93t99.5 100q-32 29 -51 69.5t-19 81.5q0 53 23 99t58.5 79.5t78.5 53t83 19.5q63 -1 99 -29t50 -69q25 23 49 46.5t46 45.5q1 17 1.5 34.5t0.5 36.5q0 64 26.5 119.5t63.5 96t76 63.5t63 23zM588 400v0q80 84 131 158t51 126q0 7 -3 11t-9 4
q-7 0 -34.5 -11t-57.5 -43.5t-54 -91.5t-24 -153zM51 92q0 -32 17 -72t50 -71q63 62 134 127.5t139 129.5q-6 50 -32.5 88t-75.5 38q-43 0 -84.5 -20t-74 -53t-53 -76.5t-20.5 -90.5zM393 174v10t-1 10q-66 -62 -134.5 -125.5t-131.5 -126.5q22 -19 49.5 -30t61.5 -11
q47 0 95.5 20.5t88.5 69t68.5 130t36.5 201.5q-22 -22 -44.5 -44t-45.5 -44q4 -13 5.5 -27.5t1.5 -29.5q0 -8 -3.5 -15t-11.5 -15q5 -7 4.5 -14t-2.5 -13q-2 -7 -10 -12t-9 -12q2 -9 -1 -16t-7 -13q-13 -19 -27.5 -33.5t-25.5 -24.5q-4 -1 -6 0t-3 5q26 38 39 80t13 80z" />
    <glyph glyph-name="T" unicode="T" horiz-adv-x="961" 
d="M265 141q7 5 18 8.5t20 4.5q20 13 41 26.5t41 25.5q12 29 27 58t33 57q-38 -11 -80.5 -18.5t-86.5 -7.5q-93 0 -133.5 24t-40.5 64q0 39 61 71t148.5 55.5t185.5 37.5t171 18q4 3 7.5 7t6.5 9q8 1 14 4.5t12 7.5t12 3.5t13 0.5q6 9 10.5 15.5t10.5 10.5q4 3 10.5 5.5
t19.5 2.5q6 5 5.5 8.5t4.5 5.5q54 28 106.5 44t98.5 16q25 0 47.5 -12t22.5 -40q0 -12 -6 -29t-24 -33.5t-50 -28t-84 -11.5q-39 0 -59 0.5t-36.5 1.5t-37.5 1.5t-61 0.5h-4.5h-4.5q-50 -40 -97.5 -90t-86.5 -106q43 19 74 38.5t44 32.5q3 4 4.5 7.5t2.5 7.5q3 1 6.5 1
t4.5 -3q0 -4 -3 -10t-9 -13q-8 -10 -44.5 -32.5t-90.5 -44.5q-15 -22 -28.5 -46.5t-25.5 -49.5q29 17 59 33t60 31q3 -1 4 -3t1 -6q-33 -16 -66 -33.5t-65 -36.5q-22 -51 -34.5 -105t-12.5 -108q0 -43 13 -70.5t56 -27.5h2.5h2.5q-1 9 -2 19t-1 20q0 76 33 143.5t84 118
t114 80t123 29.5q29 0 42.5 -13t13.5 -38q0 -47 -34.5 -102.5t-86 -105.5t-112.5 -90.5t-114 -58.5q2 -21 7.5 -44.5t18.5 -43t34.5 -32.5t55.5 -13q13 0 25 2.5t21 6.5q3 -1 3.5 -4t-0.5 -6q-10 -4 -22.5 -7t-26.5 -3q-27 0 -54.5 8t-51 24t-41.5 41t-26 58h-4h-4
q-19 0 -41 4.5t-40.5 16.5t-30.5 33t-12 55q0 43 8.5 86t24.5 85q-19 -11 -37 -23t-36 -25q-7 -5 -16.5 -9t-16.5 -5q-5 1 -7 4.5t-1 8.5zM1001 694q-54 0 -129.5 -34t-153.5 -94q72 0 121 -2t68 -2q10 0 35 1.5t51 10.5t46 27.5t20 51.5q0 25 -19 33t-39 8zM115 383
q0 -31 32 -54t131 -23q47 0 91.5 7.5t83.5 20.5q37 57 84.5 109t98.5 95q4 4 9 7.5t10 7.5q-70 -4 -163.5 -18t-177 -35.5t-141.5 -51t-58 -65.5zM533 -40v-12t1 -14q51 18 110.5 58t109.5 88.5t83.5 101.5t33.5 98q0 20 -11.5 30t-33.5 10q-10 0 -21 -1.5t-21 -3.5
t-21 -4.5t-21 -2.5q-7 -1 -12.5 -6.5t-10.5 -7.5q-6 -3 -13 -5.5t-16 -3.5q-4 -7 -10.5 -12t-13.5 -9q-7 -5 -15 -5t-15 -7q-4 -13 -10 -20t-11 -13q-42 -45 -62 -110t-20 -149z" />
    <glyph glyph-name="U" unicode="U" horiz-adv-x="550" 
d="M122 377q22 41 55.5 85.5t73.5 85.5t84.5 75t88.5 55q6 0 7.5 -3t1.5 -7q-25 -43 -70.5 -114.5t-97 -162.5t-102 -199.5t-86.5 -224.5q32 35 61 87t58.5 106.5t62 104.5t72.5 82q20 47 54 101.5t72 105t75 92.5t63 64q4 0 8 -0.5t6 -4.5q0 -1 -2.5 -3t-2.5 -4
q5 -2 4.5 -4.5t-2.5 -5.5l-5 -5t-10 -5q3 -4 1.5 -6.5t-2.5 -4.5q-1 -1 -4 -3t-15 -3q1 -7 2.5 -11.5t-2.5 -9.5q-39 -49 -87.5 -126t-94.5 -161q-2 -4 -7.5 -3.5t-0.5 -11.5l-12 -21q-4 -6 -8.5 -12t-17.5 -7q-7 -6 -3 -17t0 -18t-9.5 -14.5t-18.5 -12.5q7 -7 6 -13t-3 -11
q-34 -72 -56 -133t-22 -101q0 -43 20 -60t39 -17t41.5 16t44.5 42q-4 -1 -9.5 -2t-9.5 -1q-26 0 -44 20t-18 63q0 30 13 68.5t33 71.5t46 56t51 23q12 0 19.5 -8t12 -19.5t6 -24t1.5 -22.5q0 -43 -17.5 -94.5t-44.5 -96t-60 -74t-65 -29.5q-28 0 -49 21.5t-21 65.5
q0 68 20 155t78 195q-32 -30 -60.5 -75.5t-55.5 -94.5t-54 -97t-55 -83q-17 -22 -22.5 -33.5t-10.5 -30.5q-2 -9 -4 -15.5t-3 -10.5q-10 -1 -17 0t-12 6q-1 4 -2 11.5t-1 14.5q0 27 11 68t29 88t40.5 97t46.5 95q54 103 125.5 206.5t140.5 190.5q-46 -22 -91 -58.5
t-83.5 -77.5t-68.5 -82.5t-46 -73.5q-4 -1 -6 0t-3 5zM343 39q0 -8 1 -20.5t4.5 -24t10.5 -19.5t19 -8q4 0 8 1.5t7 4.5q32 43 55.5 100t23.5 111q0 25 -6.5 44t-21.5 19t-32.5 -20.5t-33 -51t-25.5 -67.5t-10 -69z" />
    <glyph glyph-name="V" unicode="V" horiz-adv-x="794" 
d="M613 740q16 0 22 -10t6 -23q0 -42 -43 -84t-143 -95q-10 -26 -20 -56.5t-19 -64.5q-4 -9 -9.5 -14.5t-12.5 -19.5q4 -7 2 -13t-4 -11q-3 -6 -7 -12.5t-16 -12.5q6 -7 4.5 -13.5t-3.5 -12.5q-3 -6 -6.5 -12t-13.5 -11q4 -7 2.5 -12.5t-3.5 -10.5q-43 -96 -76 -159t-45 -94
q16 38 44.5 84.5t63 97t72.5 103.5t74 104q46 65 93.5 124t90 102.5t77.5 69.5t57 26q8 0 19 -3t21 -11t17.5 -22.5t7.5 -37.5q0 -42 -12 -81.5t-31 -74.5t-44 -65.5t-51 -54.5q-3 -3 -7.5 -6t-14.5 -5q4 -4 1 -8t-7 -8q-2 -2 -5.5 -3t-13.5 0q5 -5 4.5 -7.5t-2.5 -3.5
q-26 -20 -52 -31.5t-48 -11.5q-14 0 -27.5 3t-18.5 8q0 4 2 6t5 3q4 -4 13.5 -6.5t25.5 -2.5q43 0 82 38t68 92t46 114.5t17 106.5q0 16 -2.5 35t-11.5 19q-4 0 -11.5 -3t-21.5 -14q-57 -46 -121.5 -119.5t-136.5 -174.5q-36 -50 -74.5 -104t-75 -108.5t-69 -108.5
t-55.5 -105q-7 -19 -15 -34.5t-9 -29.5q-4 -2 -8.5 -1.5t-5.5 4.5q12 55 36.5 127t52.5 144t55 137.5t43 109.5q8 22 18 44.5t20 44.5q-13 -7 -27.5 -13.5t-29.5 -13.5q-143 -67 -227.5 -123t-84.5 -99q0 -16 12 -25t34 -9q24 0 54.5 13t62 37.5t62 60t54.5 79.5q3 1 6 0
t4 -5q0 -15 -23 -48t-58.5 -65.5t-78.5 -57.5t-83 -25q-27 0 -42 12t-15 33q0 28 30.5 58.5t77 60.5t103 59t109.5 53q16 7 32.5 15t33.5 16q23 47 49 88.5t52.5 72t52.5 48t50 17.5zM613 729q-30 0 -71.5 -45t-81.5 -144q33 18 63.5 38t54.5 41t38 43.5t14 44.5
q0 11 -4 16.5t-13 5.5z" />
    <glyph glyph-name="W" unicode="W" horiz-adv-x="728" 
d="M364 612q13 0 17.5 -8.5t4.5 -17.5q0 -22 -35 -92t-84.5 -162t-105.5 -194t-98 -186q26 26 63 88.5t77.5 132.5t83 135t79.5 97q19 26 47.5 65.5t59.5 81.5t62 81.5t54 64.5q5 5 11 8.5t10 3.5t6 -2t2 -6q-14 -7 -35.5 -32t-50.5 -63t-64 -88t-76 -106
q-25 -32 -61.5 -104t-72.5 -149t-66 -145t-41 -92q9 16 34.5 52.5t61 85t79.5 106.5t90 116l50 66t47 64q-1 4 -1 9.5v11.5q0 41 19.5 89t47 89.5t57.5 69t50 27.5q10 0 13.5 -5t3.5 -15t-12 -33t-31.5 -54t-45 -67t-51.5 -73q-1 -7 -1.5 -13.5t-0.5 -12.5q0 -31 17 -46.5
t38 -15.5q24 0 52.5 17t56 44t52 62.5t40.5 72.5q4 2 6 1.5t3 -4.5q-20 -50 -50 -90.5t-63 -68t-66 -42.5t-59 -15q-27 0 -45.5 11.5t-25.5 35.5q-28 -38 -52 -70t-38 -51q-16 -21 -39 -50t-57 -73.5t-81.5 -109t-110.5 -154.5q-10 0 -16 3.5t-6 15.5q5 29 30 87t60.5 126.5
t76.5 140t77 126.5q-54 -65 -93 -128t-73.5 -124.5t-71 -123t-86.5 -123.5q-5 0 -9 3t-4 10q0 9 3 22t8 29q1 4 4.5 8t16.5 5q-9 10 -8 19t5 18q4 10 8.5 20.5t9.5 20.5q34 73 80 158.5t89.5 163.5t78 139.5t44.5 87.5q0 2 -0.5 4.5t-4.5 2.5q-17 -4 -49.5 -30t-65.5 -60.5
t-60.5 -71t-34.5 -61.5q11 6 19 13t18 17q3 1 5 -2t2 -5q-5 -7 -22 -21t-24 -14q-3 0 -6 2.5t-3 6.5q0 22 28 61.5t65.5 78.5t75.5 68t58 29zM579 525q-3 -10 -6 -19t-4 -17q54 75 88.5 130t34.5 70q0 3 -1 6t-5 3q-8 0 -19.5 -10.5t-23.5 -27.5q-3 -4 -6 -9l-6 -10
q-4 6 -6 4.5t-3 -6.5t-1 -10.5t-1 -8.5q-16 -2 -12 -9t1 -13q-16 -2 -12 -10t1 -14q-2 -6 -7.5 -11t-21.5 -5q12 -13 12 -20t-2 -13z" />
    <glyph glyph-name="X" unicode="X" horiz-adv-x="933" 
d="M386 710q49 0 94 -52t58 -183q19 50 44.5 93t54.5 74.5t61 49.5t66 18q40 0 62 -30.5t22 -70.5q0 -43 -12.5 -77.5t-31 -58t-39.5 -36t-37 -12.5q-23 0 -33.5 6t-10.5 21q0 12 8.5 20t20.5 8q7 0 10 -2t4 -3q0 -3 -1.5 -5t-2.5 -2q0 -1 -1.5 0.5t-5.5 1.5q-6 0 -8 -5
t-2 -10q0 -10 7 -14.5t15 -4.5q21 0 40.5 15t35 39.5t24.5 55.5t9 63q0 31 -17 60.5t-56 29.5q-34 0 -72.5 -33.5t-71.5 -93.5q-7 -1 -11.5 -6t-8.5 -14q4 -7 2.5 -13t-4.5 -12q-8 0 -10 -12t-15 -15q9 -4 9 -9.5t-2 -10.5q-1 -5 -5.5 -14.5t-20.5 -7.5q13 -5 13 -11t-1 -13
q-13 -49 -20 -105t-8 -117q0 -33 4 -76.5t16 -81.5t35.5 -65t62.5 -27q41 0 79.5 31.5t68 77t47 98.5t17.5 95q0 13 -3 28.5t-10 28t-19 21t-30 8.5q-26 0 -47 -14.5t-35 -39.5t-21.5 -58.5t-7.5 -71.5q0 -15 3 -32.5t10 -32.5t20 -24t34 -6q3 -1 3.5 -5.5t-2.5 -7.5
q-7 -2 -16.5 -3.5t-19.5 -1.5t-24.5 2.5t-27.5 12t-22.5 29t-9.5 53.5t12.5 72t34.5 68.5t52 51t64 20.5q27 0 51 -24.5t24 -73.5q0 -31 -15.5 -84.5t-45.5 -105.5t-75 -90.5t-103 -38.5q-30 0 -56 8.5t-46 30.5t-33.5 61t-17.5 101q-28 -60 -66.5 -107.5t-81 -80.5
t-86.5 -50.5t-83 -17.5q-19 0 -42.5 8.5t-44 27.5t-35 50t-14.5 75q0 38 16.5 74.5t41 64t54.5 44t56 16.5q50 0 74.5 -36t24.5 -90q-4 -7 -8.5 -12t-8.5 -11q11 -7 11.5 -13t-0.5 -12t-10 -11t-16 -9q11 -7 10.5 -11.5t-2.5 -8.5q-14 -22 -31.5 -36t-30.5 -22q-4 -1 -6 1.5
t-2 6.5q24 31 32.5 63t8.5 69q0 16 -3.5 36t-10.5 36.5t-19.5 28t-30.5 11.5q-22 0 -46.5 -15.5t-45 -40.5t-34 -57t-13.5 -66t10.5 -62t28 -47.5t40 -30t46.5 -10.5q39 0 92 28.5t100.5 88.5t80.5 152.5t33 219.5q0 50 -5 104.5t-16 100t-28.5 75t-42.5 29.5
q-33 0 -66.5 -19.5t-59.5 -47t-43 -56.5t-17 -48q0 -22 14 -32.5t34 -10.5q30 0 59.5 24t43.5 55q6 2 9 -1t3 -7q-16 -31 -48 -56.5t-67 -25.5q-26 0 -42.5 13.5t-16.5 40.5q0 21 18 52t46 59.5t63 49.5t70 21z" />
    <glyph glyph-name="Y" unicode="Y" horiz-adv-x="515" 
d="M323 672q13 0 26 -10t13 -29q0 -46 -22 -114.5t-50 -141t-54.5 -141t-36.5 -113.5q20 28 42.5 66.5t46.5 80.5t48.5 83.5t47.5 73.5q12 30 29.5 78t37 93.5t40 78.5t39.5 33q7 0 10 -6.5t3 -13.5q0 -32 -20 -57.5t-39 -44.5q-20 -51 -40.5 -114.5t-41 -130.5
t-40.5 -136.5t-39 -134.5q31 28 60 53t54 44q4 -1 5 -2.5t1 -5.5q-28 -22 -60 -49.5t-66 -58.5q-10 -31 -19 -61t-18 -57q-23 -71 -67 -161t-96.5 -169t-107.5 -133.5t-101 -54.5q-19 0 -35 13t-16 44q0 41 36.5 105t94 137.5t130 152t143.5 146.5q2 10 4.5 19.5t3.5 19.5
q8 43 21.5 92.5t28.5 95t29 83.5t22 59q-21 -31 -44.5 -72t-46.5 -80.5t-43.5 -72.5t-35.5 -48q-7 -8 -15 -14.5t-14 -9.5q-7 0 -16 4.5t-13 17.5q4 37 35 104.5t66 141.5t63.5 145t28.5 115q1 18 -6.5 31.5t-17.5 13.5q-28 -14 -58.5 -48t-55.5 -72.5t-41.5 -74
t-16.5 -51.5q0 -4 1.5 -7.5t3.5 -4.5q1 -4 -1.5 -6t-5.5 -2q-4 4 -6.5 8.5t-2.5 11.5q0 21 22 64t52.5 86t64 75.5t56.5 32.5zM487 607q24 24 34 47t11 36q0 3 -0.5 5.5t-1.5 3.5q-6 -1 -11.5 -11t-11 -24t-10.5 -29.5t-10 -27.5zM-132 -526q0 -18 9 -32t31 -14t52 20t64 57
t70 91.5t68 122.5q4 9 11 23t16 9q-6 7 0.5 16.5t-0.5 21.5q7 12 16.5 29t15.5 16q-5 10 -5 15.5t4 15.5t8 22t13 13q-7 7 -3.5 21t6.5 24q4 13 7 26l6 26q-71 -68 -140.5 -144.5t-124.5 -147.5t-89.5 -132t-34.5 -99z" />
    <glyph glyph-name="Z" unicode="Z" horiz-adv-x="634" 
d="M363 -361q-31 -46 -67 -85t-71 -67.5t-67 -44.5t-55 -16q-20 0 -35 10t-15 37q0 40 35 91.5t91 104.5t126 103.5t139 89.5q22 57 34.5 114.5t12.5 111.5q0 13 -1.5 29.5t-6 31t-13.5 24.5t-23 10q-27 0 -55.5 -15t-54 -37t-45.5 -47t-29 -44q-9 -4 -17 0.5t-7 17.5
q51 47 86 90.5t60.5 88.5t45 95t40.5 111q10 28 19 54.5t18 51.5q-31 -12 -70.5 -24.5t-89.5 -24.5q-28 -7 -52.5 -14t-45.5 -14q-5 -1 -11 3t-13 -6q-2 -5 -7 -8t-11 -5q-6 -3 -13.5 -3.5t-23.5 7.5q3 -15 -2 -20t-10 -9q-34 -21 -46.5 -41t-12.5 -35q0 -36 22 -54t59 -18
q38 0 73.5 23.5t54.5 70.5q3 1 6 0.5t4 -4.5q0 -21 -14 -39.5t-35 -32t-45 -21.5t-44 -8q-46 0 -71 26t-25 56q0 20 6.5 48t33 55.5t80.5 51t149 34.5q48 5 91 16.5t77 25.5q21 51 42.5 84t46.5 33q18 0 25 -11t7 -27q0 -22 -24.5 -49.5t-90.5 -56.5q-8 -23 -17 -49.5
t-19 -56.5q-18 -52 -33.5 -93t-32.5 -76t-37 -67.5t-47 -67.5q34 37 69.5 53.5t58.5 16.5q37 0 53.5 -35.5t16.5 -93.5q0 -50 -12 -101t-31 -99q23 12 45.5 21.5t42.5 16.5q5 -1 6.5 -4t-2.5 -8q-22 -7 -47.5 -18t-51.5 -24q-5 -12 -11 -23.5t-12 -22.5q-4 -8 -9 -15.5
t-14 -15.5q2 -7 0 -15t-3 -15q-2 -7 -8 -15.5t-13 -15.5q-6 -7 -11 -16t-2 -18q-6 -5 -11 -11.5t-15 -13.5q2 -8 -6 -19t-12 -18zM611 690q-18 0 -34.5 -25t-34.5 -71q40 19 62.5 40t22.5 40q0 8 -5 12t-11 4zM64 -527q0 -19 11 -27.5t28 -8.5q31 0 75.5 34t91 90t91 130.5
t76.5 153.5q-66 -38 -133 -87t-120 -100t-86.5 -99.5t-33.5 -85.5z" />
    <glyph glyph-name="grave" unicode="`" horiz-adv-x="250" 
d="M192 477q10 0 16.5 -7t6.5 -21q-2 -10 -4 -18t-2 -16q0 -12 5.5 -29t12.5 -30q-1 -5 -3 -6.5t-9 -1.5q-13 13 -31 41.5t-18 53.5q0 16 8 25t18 9z" />
    <glyph glyph-name="a" unicode="a" horiz-adv-x="287" 
d="M257 69q-13 -21 -33 -43t-48 -22q-19 0 -33 12t-14 34q0 12 -3.5 16.5t-13.5 -5.5q-7 -6 -17 -16t-21.5 -19t-22.5 -15.5t-19 -6.5q-18 0 -27 16.5t-9 40.5q0 33 14 67.5t36 63t48 46.5t50 18q20 0 28 -10t8 -24v-2q4 11 7.5 19.5t7.5 12.5q4 2 7 3t7 1t9.5 -1t9.5 -4
q-2 -19 -7.5 -37t-12.5 -35q-10 -5 -9 -8.5t2 -7.5q-3 -5 -7 -11t-14 -12q6 -4 5 -9.5t-3 -9.5q-6 -13 -9.5 -26t-3.5 -24q0 -16 8.5 -23.5t21.5 -7.5q10 0 23.5 8t26.5 27q3 0 5 -1.5t3 -4.5zM38 104q7 -4 8.5 -10.5t-2.5 -16.5q0 -18 3.5 -27t14.5 -9q13 0 40.5 25
t50.5 66q5 18 10.5 35.5t9.5 33.5q-7 -10 -17.5 -17t-19.5 -11q-3 2 -4 5t-1 5q12 4 23.5 14.5t11.5 24.5q0 8 -5 15.5t-17 7.5q-14 0 -29.5 -11t-29.5 -29q-3 -4 -7.5 -9.5t-11.5 -11.5q-5 -14 -2 -25t-3 -20q-5 -10 -10.5 -17t-12.5 -18z" />
    <glyph glyph-name="b" unicode="b" horiz-adv-x="235" 
d="M60 123q-4 -24 -6.5 -43.5t-2.5 -32.5q0 -10 2 -14.5t11 -4.5q11 0 37.5 28t48.5 81q8 20 11 32t4 25q-10 4 -15 12t-5 19q0 10 6.5 17.5t16.5 7.5q9 0 14.5 -6.5t5.5 -16.5v-8.5t-1 -8.5q2 -1 6 -1.5t8 -0.5q23 0 39 15.5t20 21.5q2 0 4 -1t1 -3q-13 -22 -28.5 -37
t-40.5 -15h-7.5t-6.5 1q-4 -12 -9 -26t-12 -30q-26 -63 -58 -103t-67 -40q-7 0 -21 5.5t-14 28.5q0 22 8 64t21.5 96.5t31.5 117t39 124.5q13 33 30.5 63t37 52t40.5 35t40 13q17 0 25 -10.5t8 -29.5q0 -41 -17.5 -77.5t-44 -65.5t-57.5 -51.5t-59 -37.5q-7 -27 -13 -52.5
t-12 -49.5q0 -7 -1.5 -15t-11.5 -15q5 -10 1 -18.5t-7 -16.5q-7 -6 -7 -14.5t7 -13.5zM136 427q-7 -22 -13.5 -43.5t-11.5 -41.5q49 18 90 56.5t58 87.5q1 4 3 7t5 4q2 9 1 13t0 8t2.5 8t6.5 8q-4 4 -5 8t-1 8q0 13 -5 21.5t-17 8.5q-22 0 -57.5 -43.5t-55.5 -109.5z" />
    <glyph glyph-name="c" unicode="c" horiz-adv-x="200" 
d="M97 164q-4 0 -9 1t-9 3q0 3 1 6t3 4q4 -1 7.5 -2t6.5 -1q19 0 35 10t16 29q0 7 -4 13t-17 6q-17 0 -35 -13.5t-32 -34.5t-23 -48.5t-9 -55.5q0 -43 17 -58t36 -15q22 0 41.5 16t34.5 38q4 1 6 0t3 -5q-13 -24 -43 -48.5t-67 -24.5q-6 0 -13 1.5t-12 2.5q-13 5 -15.5 9
t-3.5 13q-10 0 -14 3.5t-7 9.5q-1 4 -1.5 9t5.5 15q-1 5 -4 9t-7 6q0 34 14 67t35 58.5t46 41t48 15.5q16 0 24 -8.5t8 -21.5t-6 -23t-14 -14q-4 2 -7.5 1t-4.5 -8q-4 -4 -10 -3t-11 4q-2 -5 -4 -6t-5 -1z" />
    <glyph glyph-name="d" unicode="d" horiz-adv-x="328" 
d="M68 -2q-8 -4 -16.5 -6t-16.5 -2q-18 0 -32 12t-15 42q0 37 18 73.5t43.5 66t55.5 48t55 18.5q18 0 29.5 -11.5t11.5 -36.5q0 -4 -0.5 -10t-3.5 -13q-4 -3 -7.5 -2t-3.5 5q1 5 2.5 10t1.5 10q0 15 -7 26t-23 11t-37 -15t-39.5 -40t-31.5 -57.5t-13 -66.5q0 -25 5.5 -32
t16.5 -7q22 0 66.5 38.5t88.5 126.5q22 43 46.5 92.5t47.5 93.5t43 76t32 41q6 0 10.5 -2.5t5.5 -7.5q-4 -8 -7 -16t-7 -15l-8 -2t-8 -7q1 -15 -0.5 -22.5t-4.5 -12.5q-3 -6 -8.5 -10t-13.5 -12q4 -6 3 -12t-4 -11q-11 -21 -21 -37.5t-18 -27.5q-17 -33 -35 -69.5t-33 -68.5
t-24.5 -57t-9.5 -35q0 -13 8 -20t19 -7q10 0 29 8.5t43 41.5q4 0 6 -1.5t2 -5.5q-23 -30 -51 -53.5t-61 -23.5q-19 0 -31 9.5t-12 31.5q0 9 -1 15.5t-10 -3.5q-6 -10 -12 -14t-11 -6q-4 -10 -13.5 -13.5t-20.5 -4.5q-2 -9 -6.5 -12.5t-11.5 -7.5z" />
    <glyph glyph-name="e" unicode="e" horiz-adv-x="215" 
d="M129 265q16 0 24 -8.5t8 -22.5q0 -12 -8.5 -28.5t-24.5 -33.5t-39 -32.5t-51 -24.5q-1 -7 -1.5 -13.5t-0.5 -13.5q0 -34 16 -50t41 -16q11 0 23 4t20 8q4 2 7 1t8 0q1 5 3 6.5t4 4.5h8q1 6 4 6.5t3 4.5l13 13q4 0 5.5 -1.5t1.5 -5.5q-28 -33 -60 -53t-63 -20
q-34 0 -55.5 18t-21.5 64q0 39 13.5 74.5t34 61.5t44.5 41.5t44 15.5zM70 208q-9 -14 -16 -30.5t-11 -32.5q16 3 35 12t35 21.5t26.5 27t10.5 28.5q0 10 -5.5 15t-15.5 5q-7 0 -13.5 -2t-11.5 -6q-2 -1 -4.5 -2.5t-6.5 -2.5q-1 -5 -3 -8t-4 -4q-2 -2 -5.5 -3.5t-10.5 -0.5
q4 -7 2.5 -10.5t-2.5 -6.5z" />
    <glyph glyph-name="f" unicode="f" horiz-adv-x="159" 
d="M7 100q1 2 1.5 5t0.5 5q-5 2 -11.5 3t-13.5 1q-30 0 -65.5 -19t-70.5 -50t-68.5 -70.5t-59.5 -79.5q-4 -1 -7.5 -5.5t-2.5 -9.5q-1 -5 -4.5 -9.5t-5.5 -8.5q-2 -1 -5.5 -2.5t-9.5 -4.5q2 -7 1 -13t-3 -10q-3 -4 -6.5 -8t-7.5 -5q0 -5 -0.5 -10.5t-2.5 -10.5
q-10 -22 -15.5 -42.5t-5.5 -36.5q0 -25 18 -51.5t70 -26.5q13 0 28.5 2.5t25.5 8.5q4 0 5 -4.5t-1 -6.5q-13 -6 -29 -8.5t-29 -2.5q-57 0 -84 26t-27 63q0 44 40.5 114.5t98 137t120.5 115.5t108 49q7 0 13.5 -1t11.5 -3q15 60 34.5 121t41.5 111q1 4 4 9.5t6 12.5
q25 49 53 80t52 31q18 0 23.5 -15t5.5 -35q0 -34 -9.5 -73t-27.5 -74t-43.5 -63.5t-56.5 -43.5q-7 4 -10.5 8t0.5 11q18 4 41.5 31.5t44.5 63.5t35.5 74.5t14.5 65.5q0 6 -1.5 22.5t-16.5 16.5q-6 0 -14 -4t-16 -11q-4 -2 -7.5 -4.5t-10.5 -1.5q-1 -4 -1 -8t-4 -11
q-3 0 -7 -2.5t-9 -7.5q1 -7 0.5 -11.5t-3.5 -8.5q-4 -6 -8 -7.5t-9 -9.5q5 -4 4 -9t-5 -9q-10 -28 -20.5 -61.5t-20.5 -70.5q-1 -28 -8 -67t-17 -85q6 -15 8 -36t2 -49q0 -41 -13 -104t-32.5 -122t-42.5 -101.5t-43 -42.5q-12 0 -21 8t-9 24q0 23 10 61.5t25.5 92t35 122.5
t38.5 151zM-62 -303q-3 -10 -2.5 -19t6.5 -10q4 0 11.5 9t13.5 21q13 28 27.5 67.5t26.5 81.5t20 85t8 79q0 18 -1.5 32.5t-4.5 25.5q-12 -51 -27 -104.5t-29 -103.5q-5 -2 -9.5 -3t-6.5 -10q4 -16 3.5 -23.5t-2.5 -14.5q-5 -3 -13 -9.5t-9 -19.5q4 -4 6 -9.5t1 -10.5
q-6 -18 -10.5 -34.5t-8.5 -29.5z" />
    <glyph glyph-name="g" unicode="g" horiz-adv-x="243" 
d="M146 233q19 0 24.5 -8.5t5.5 -17.5q0 -13 -7.5 -26t-24.5 -24q-7 -14 -13.5 -36t-12.5 -47q10 11 18.5 22.5t14.5 21.5q4 2 6.5 0t2.5 -5q-10 -13 -22 -28.5t-25 -30.5q-4 -22 -9.5 -45t-9.5 -44l-2 -12l-2 -12q34 31 65.5 70.5t52.5 83.5q4 2 6.5 1t3.5 -4
q-14 -33 -47.5 -77.5t-83.5 -87.5q-14 -69 -29.5 -112.5t-31 -67.5t-31 -32.5t-28.5 -8.5q-19 0 -32 14t-13 40q0 40 36 73t86 71q4 19 8 36.5t8 31.5q1 8 3.5 17t5.5 18q-15 -14 -29 -22.5t-24 -8.5q-17 0 -28.5 16t-11.5 41q0 40 19.5 76.5t46.5 64t56 43.5t48 16zM24 43
q0 -16 3.5 -26t13.5 -10q6 0 16 7t21 17q2 6 5 11.5t5 11.5q1 4 2 9t5 18q3 6 6.5 9t7.5 3q0 7 -0.5 11.5t0.5 7.5q3 4 5.5 6.5t8.5 3.5q1 6 -0.5 9.5t-2.5 6.5l4 6t3 5q-4 1 -6.5 3.5t-2.5 7.5q11 17 29 24t18 23q0 7 -3.5 11t-15.5 4q-19 0 -41 -17t-39.5 -42.5
t-29.5 -57.5t-12 -62zM-33 -283h6.5t7.5 -1q3 3 3 5.5t1 3.5q2 1 5 3.5t7 3.5q2 4 2.5 6.5t-0.5 5.5q2 4 4 8.5t3 10.5q8 25 17 59t17 67q-40 -31 -73.5 -62t-33.5 -67q0 -22 11 -32.5t23 -10.5z" />
    <glyph glyph-name="h" unicode="h" horiz-adv-x="285" 
d="M259 590q11 0 15.5 -9.5t4.5 -28.5q0 -6 -0.5 -11.5t-0.5 -9.5q-1 -4 -2.5 -7.5t-5.5 -7.5q1 -2 2.5 -5.5t-0.5 -7.5q1 -1 -1.5 -4t-6.5 -7q2 -3 1 -6t-2 -7q-4 -1 -4.5 -3.5t1.5 -5.5q-1 -3 -2 -5.5t-2 -5.5q-21 -47 -57 -94.5t-81 -75.5q-1 -1 -1 -3t-1 -3
q-22 -61 -44 -118.5t-40 -103t-31 -76t-17 -37.5q4 -16 4 -31.5t-2 -23.5q-11 -6 -24.5 -2.5t-13.5 12.5q1 7 4.5 20.5t9.5 31.5q1 5 4 10.5t10 9.5q2 8 2 14.5t-2 10.5q1 4 3.5 8t8.5 5q-3 7 -2 12.5t2 9.5q11 32 23.5 66.5t24.5 68.5t23 65t19 55q18 50 42.5 103.5
t49.5 97t48.5 71.5t40.5 28zM259 580q-12 0 -28.5 -24t-34 -61.5t-35.5 -84.5t-34 -93q28 19 53.5 48t45.5 61.5t32 65.5t12 60q0 9 -1.5 18.5t-9.5 9.5zM61 112q9 11 25.5 34t37 46t43.5 40t43 17q11 0 18.5 -7t7.5 -20q0 -18 -11.5 -40t-25.5 -46t-25.5 -48.5t-11.5 -47.5
q0 -8 3 -13.5t9 -5.5q12 0 29.5 18t24.5 41q4 0 8 -2t4 -6q-6 -12 -14.5 -26t-20.5 -26.5t-28 -21t-35 -8.5q-13 0 -25.5 7t-12.5 25q0 17 14 44.5t31 54.5t31 50t14 31q0 3 -0.5 7.5t-8.5 4.5q-7 0 -19 -7t-28 -20q-4 0 -6.5 -1.5t-4.5 -3.5q1 -4 -1 -6.5t-3 -3.5
q-3 -1 -6.5 -2.5t-5.5 -4.5q0 -4 -2 -7.5t-4 -6.5q-3 -3 -5.5 -6t-6.5 -8q-7 -9 -13 -17t-10 -14q-4 -1 -6.5 1t-2.5 5z" />
    <glyph glyph-name="i" unicode="i" horiz-adv-x="140" 
d="M171 381q-7 0 -12 3.5t-4 10.5q-2 6 -5 8.5t-7 4.5q0 13 7.5 21.5t20.5 8.5q13 -1 18.5 -9t5.5 -21q0 -11 -7 -17.5t-17 -9.5zM69 233q12 0 20 -6.5t9 -15.5q-5 -8 -9.5 -12t-17.5 -4q1 -7 1 -15.5t-3 -13.5q-4 -8 -8.5 -8t-10.5 -5q4 -10 2 -20t-5 -20
q-5 -17 -7.5 -33.5t-3.5 -29.5q1 -13 5 -21t16 -8q10 0 20.5 10.5t17.5 20.5q4 0 5.5 -1t2.5 -5q-22 -31 -42.5 -43.5t-33.5 -12.5q-16 0 -28.5 11t-12.5 33q0 23 8 51.5t20.5 55.5t27 51.5t27.5 40.5z" />
    <glyph glyph-name="j" unicode="j" horiz-adv-x="124" 
d="M114 385q-13 0 -24 6t-11 17q0 6 3 11.5t10 5.5q1 7 5.5 9.5t11.5 2.5q15 0 21.5 -9t6.5 -21q-5 -4 -7.5 -13t-15.5 -9zM40 209q3 7 7.5 12.5t7.5 7.5q7 2 13 -0.5t8 -7.5q-6 -9 -12 -32t-12 -54.5t-12 -69t-12 -75.5q13 12 24.5 22t19.5 17q3 0 5 -3t2 -5
q-13 -11 -26.5 -23t-26.5 -25q-5 -39 -9.5 -74.5t-8.5 -60.5q-7 -57 -28 -77.5t-39 -20.5q-22 0 -34.5 10.5t-12.5 29.5q0 38 30 84t66 86q-3 9 -3 15.5t1 13.5q2 4 4.5 7t7.5 4q-4 3 -6 9.5t-1 10.5q3 1 7 4.5t8 7.5q-7 3 -9 8.5t-1 9.5q10 59 21.5 105.5t20.5 63.5z
M-79 -221q0 -17 6.5 -22.5t13.5 -5.5q15 0 21 21t10 64q1 19 3.5 40.5t4.5 43.5q-27 -35 -43 -71.5t-16 -69.5z" />
    <glyph glyph-name="k" unicode="k" horiz-adv-x="244" 
d="M210 520q13 0 18.5 -11.5t5.5 -30.5q0 -21 -8 -52.5t-23.5 -62.5t-39 -56.5t-54.5 -35.5q-28 -72 -60.5 -134.5t-58.5 -110.5q-4 -22 -4.5 -35t-0.5 -26q-5 -5 -10 -7t-10 -2q-7 0 -14 6.5t-7 16.5q0 18 10 30t18 25q2 4 5.5 6t7.5 1q-1 13 1 19t6 10q6 15 10.5 23
t11.5 22q2 5 4.5 10t4.5 7q2 7 3.5 11t3.5 8q16 40 29 78t22 72q34 126 69 172.5t60 46.5zM116 324q3 -2 3 -8.5t-2 -14.5q1 -3 3 -4t6 -1q9 0 25.5 16.5t32.5 42.5t27.5 58.5t11.5 64.5q0 7 -4 14.5t-10 7.5q-13 0 -29.5 -25t-37.5 -90q-3 -2 -6 -5.5t-9 -9.5q6 -5 6 -10
t-1 -10q-1 -4 -7.5 -10t-8.5 -16zM84 179q18 29 40 55t43 26q17 0 26.5 -13.5t9.5 -37.5q0 -28 -24 -62t-55 -65q4 -22 15.5 -36.5t29.5 -14.5q11 0 27.5 9t38.5 28q4 0 5 -2.5t1 -5.5q-16 -14 -44 -35t-81 -21q-18 0 -32.5 32.5t-18.5 75.5q2 9 9 17t17 8q7 0 16 -11.5
t14 -30.5q12 13 24 41.5t14 55.5q1 3 4.5 5.5t7.5 3.5q-7 3 -9 8t-3 9q2 2 5 7.5t4 11.5q-3 -6 -8.5 -6.5t-10.5 0.5q-7 0 -23 -14t-33 -43q-4 0 -5.5 1.5z" />
    <glyph glyph-name="l" unicode="l" horiz-adv-x="187" 
d="M263 615q16 0 18 -12t2 -19q0 -45 -18.5 -91.5t-45.5 -86t-59.5 -67.5t-60.5 -35q-21 -66 -33.5 -128t-11.5 -104q1 -22 8.5 -30.5t18.5 -8.5q16 1 37 14t47 48q4 0 5.5 -2t2.5 -5q-9 -13 -21.5 -30t-27.5 -32t-33.5 -26t-40.5 -11q-20 0 -32.5 11.5t-13.5 35.5
q-2 51 17.5 124.5t50.5 148.5q2 8 5.5 13t12.5 6q-2 11 -1 18.5t6 17.5q6 4 10.5 7.5t8.5 9.5q-1 8 -2 15t7 14q10 9 9 16.5t3 14.5q9 16 15 34t14 32q10 15 21 28t19 24q2 3 5 4.5t9 -1.5q-1 10 2 12.5t5 5.5q2 2 4.5 3t5.5 0q0 7 1.5 10.5t3.5 4.5q10 8 15 12.5t12 4.5z
M175 494q-18 -36 -35.5 -78.5t-32.5 -87.5q25 6 54 31.5t53.5 62t41 79t16.5 83.5q0 7 -1 13.5t-8 6.5q-10 0 -36.5 -30t-51.5 -80z" />
    <glyph glyph-name="m" unicode="m" horiz-adv-x="345" 
d="M153 96q16 17 32.5 37t31 39t25.5 35t17 24q7 13 15 18t12 5q7 0 13 -5t6 -15q0 -9 -9.5 -34.5t-21.5 -56t-21.5 -60t-9.5 -45.5q0 -8 4 -12.5t9 -4.5q9 0 18.5 10t18.5 26q3 0 5.5 -2t2.5 -5q-14 -23 -35 -41t-41 -18q-16 0 -25.5 8t-9.5 20q0 4 2 9t8 6q3 9 2 16t-3 10
q1 6 6 9.5t13 1.5q-5 10 -5.5 14.5t0.5 8.5q4 10 7.5 17l7.5 15q9 19 17.5 36t12.5 27q5 13 1 13t-12 -10q-4 -6 -16 -20.5t-25.5 -31t-26 -31t-18.5 -19.5q-3 -2 -5 0t-3 6zM54 240q9 4 19 0t10 -13q0 -13 -11 -48t-25.5 -74t-29 -73t-20.5 -45q-10 -7 -23.5 -3t-13.5 15
q5 9 19.5 43.5t30 74t28.5 75.5t16 48zM56 118q15 15 40 46t43 56q6 8 12 12t11 4q6 0 10 -4.5t4 -20.5q0 -13 -6 -33t-15 -43t-20.5 -46.5t-22.5 -42.5q1 -19 0 -26t-3 -11t-14.5 -10t-19.5 -6q-4 0 -6.5 4t-1.5 13q0 10 9.5 31.5t22 46t24.5 48t16 38.5q3 8 2 13.5t-6 5.5
q-2 0 -5 -2.5t-7 -8.5q-3 -4 -10 -13t-16 -20t-18.5 -21.5t-15.5 -16.5q-3 0 -5 1.5t-2 5.5z" />
    <glyph glyph-name="n" unicode="n" horiz-adv-x="285" 
d="M177 122q-15 -24 -23 -38.5t-8 -32.5q0 -13 6.5 -18.5t16.5 -5.5q11 0 30.5 13t50.5 55q4 0 5.5 -0.5t2.5 -5.5q-11 -15 -23 -31.5t-25.5 -30.5t-30 -23t-36.5 -9q-18 0 -33 9t-15 30q0 31 21 54.5t37 45.5t22 34.5t6 19.5q0 2 -1 4t-3 2q-1 0 -4.5 -0.5t-5.5 -2.5
q-22 -22 -42.5 -36t-44.5 -27q-4 1 -5 4.5t0 5.5q10 4 23.5 13t23.5 18q2 1 5 3t7 1q1 5 2.5 7.5t4.5 4.5q5 1 10 2.5t5 14.5q4 4 8 8.5t11 12.5q11 13 18 23.5t16 10.5q6 0 11 -8.5t5 -21.5q0 -21 -10.5 -41.5t-37.5 -63.5zM-44 20q12 26 27.5 57.5t34 62.5t38.5 60.5
t39 53.5q2 1 4 1h4q8 0 14.5 -5t9.5 -12q-15 -20 -35.5 -50t-40 -63t-36 -65.5t-23.5 -56.5q-2 -1 -7.5 -2t-9.5 0q-7 2 -12 7t-7 12z" />
    <glyph glyph-name="o" unicode="o" horiz-adv-x="218" 
d="M68 207q3 0 4.5 -1.5t1.5 -3.5q-31 -32 -39.5 -64.5t-8.5 -54.5q0 -26 9.5 -40t26.5 -14q22 0 45.5 28.5t38.5 66.5q-1 -1 -3 -1h-3q-31 0 -46 15.5t-15 40.5q0 20 17 45.5t44 25.5q18 0 26 -13.5t8 -36.5q0 -13 -3 -28.5t-8 -31.5q14 4 27.5 13t29.5 22q3 0 4.5 -1.5
t1.5 -5.5q-9 -8 -28.5 -21.5t-38.5 -20.5q-8 -22 -19.5 -44t-24.5 -41q-4 -6 -10 -10t-15 -5q3 -8 1 -12t-6 -7q-5 1 -10 1t-12 -7q-2 -4 -6.5 -7.5t-10.5 -3.5q-28 0 -45 19.5t-17 49.5q0 47 28 87t56 61zM114 187q0 -22 8.5 -35.5t24.5 -13.5h2.5h2.5q5 16 8 32t3 30
t-4 26.5t-19 12.5q-16 0 -21 -18t-5 -34z" />
    <glyph glyph-name="p" unicode="p" horiz-adv-x="246" 
d="M129 359q12 0 17 -3t6 -7t-1 -7t-5 -4h-6.5t-6.5 1q-13 -11 -32 -50t-38.5 -88.5t-38 -102t-30.5 -91.5q-7 -22 -15.5 -48.5t-16.5 -54.5q-1 -5 -4 -10.5t-13 -10.5q-1 -8 -0.5 -14t1.5 -14q0 -5 -2.5 -11t-9.5 -14q4 -4 3 -9.5t-2 -11.5q-3 -10 -5.5 -13.5t-6.5 -7.5
q-6 -7 -8 -17.5t3 -16.5q-7 -24 -12.5 -40t-7.5 -20q-9 -3 -17.5 -0.5t-10.5 7.5q2 20 18 72.5t37.5 115.5t43.5 126.5t36 104.5q28 82 62.5 148.5t61.5 90.5zM31 72q12 10 27.5 26t30 33t27 32.5t18.5 25.5q10 19 19 26.5t18 7.5q7 -3 11 -9.5t4 -19.5q0 -10 -7 -24.5
t-22 -35.5q-5 -21 -14.5 -37.5t-22.5 -31.5q6 -13 6 -22.5v-13.5q0 -6 2 -10t7 -4q7 0 17 8.5t20.5 20.5t20 26t15.5 25q3 3 6.5 1.5t3.5 -5.5q-5 -12 -19 -32t-31 -40t-33.5 -34.5t-27.5 -14.5q-9 0 -18 7t-9 27q0 16 7 36t16.5 40t19.5 38t16 31q6 14 1.5 18t-12.5 -8
q-7 -9 -20.5 -23.5t-27.5 -29t-26 -26t-16 -15.5q-4 0 -5.5 2.5t-1.5 4.5z" />
    <glyph glyph-name="q" unicode="q" horiz-adv-x="205" 
d="M134 221q7 0 11.5 -2t4.5 -12t-9.5 -23.5t-24.5 -28.5q-3 0 -5 1.5t-2 4.5q4 4 5.5 9.5t1.5 9.5t-2 6t-8 2q-7 0 -19 -7t-23 -19q-24 -27 -37.5 -65.5t-13.5 -62.5q0 -7 3.5 -11t10.5 -4q9 0 30 10t46 38q16 45 31.5 81.5t28.5 55.5q7 0 16.5 -4.5t9.5 -13.5
q0 -6 -1.5 -9.5t-2.5 -6.5q-11 -28 -27.5 -56.5t-33.5 -48.5q-16 -46 -26 -76t-17 -55q-8 -25 -16 -49.5t-18 -47.5q1 -14 -2 -28t-6 -26q-3 -13 -5.5 -24t-4.5 -18q-7 -3 -19 0.5t-13 10.5q2 17 10.5 46.5t20.5 64.5t27 74.5t31 75.5q2 8 5 16t5 15q-22 -25 -52 -45
t-52 -20q-16 0 -23 8.5t-7 20.5q0 5 0.5 10.5t4.5 11.5q7 2 6 8t-2 11q1 4 4 8t10 4q3 7 3 11.5t-1 11.5q14 25 33 49.5t39.5 44t40 31.5t34.5 12z" />
    <glyph glyph-name="r" unicode="r" horiz-adv-x="198" 
d="M-29 95q19 22 39 52t31 60q-4 4 -8 13.5t-4 20.5q0 19 7.5 32.5t17.5 13.5q4 0 6 -2t3 -6q0 -1 -1 -4.5t-9 -10.5q6 1 12 -1.5t8 -8.5q7 -10 18.5 -14.5t35.5 -4.5q2 5 8.5 14t13.5 9t11.5 -4t4.5 -11q0 -9 -7 -16t-12 -13q-14 -16 -33.5 -56t-19.5 -82q0 -20 8 -29.5
t21 -9.5q20 0 37 15t32 34q4 0 6 -1.5t2 -5.5q-28 -37 -51 -56t-51 -19q-21 0 -37 12.5t-16 39.5q0 32 19 61.5t47 63.5q7 8 4.5 13.5t-11.5 5.5q-10 0 -23.5 -3t-24.5 1q-10 -21 -32 -52t-43 -58q-4 0 -6 2t-3 5z" />
    <glyph glyph-name="s" unicode="s" horiz-adv-x="210" 
d="M-52 -1q22 27 42 60t39 65t38.5 62t38.5 51q10 14 26 25t33 17q4 -1 4.5 -4.5t0.5 -6.5q-14 -4 -28.5 -20t-14.5 -36q0 -28 11 -39t19 -29q2 -5 1.5 -10.5t-10.5 -18.5q10 1 13.5 -2.5t3.5 -8.5q0 -4 -2.5 -7.5t-8.5 -8.5q-1 -5 2 -7.5t2 -8.5q-12 -34 -43.5 -58
t-62.5 -24q-28 0 -44 12t-19 32q-9 -13 -17 -24t-15 -18q-4 0 -6 1.5t-3 5.5zM7 22q4 -10 15 -15.5t30 -5.5q30 0 47.5 21.5t17.5 64.5q0 18 -4.5 30t-10 22t-10 20.5t-5.5 26.5q-16 -18 -32 -44l-32 -52q-2 -4 -4.5 -8t-4.5 -8q1 1 2.5 1h2.5q4 -11 13.5 -11.5t9.5 -13.5
q0 -5 -1.5 -8.5t-3.5 -7.5q-10 2 -11 -5.5t-19 -6.5z" />
    <glyph glyph-name="t" unicode="t" horiz-adv-x="190" 
d="M172 481q4 3 7 2t4 -5q-17 -40 -32.5 -83.5t-22.5 -66.5q-2 -7 -0.5 -10t8.5 -3q21 1 50.5 5.5t62.5 12.5q4 0 6.5 -5.5t-1.5 -10.5q-4 -4 -20.5 -8t-36.5 -7.5t-39 -6.5t-28 -4q-8 -1 -12 -2.5t-6 -8.5q-6 -15 -17.5 -49.5t-22.5 -72.5t-19.5 -74t-8.5 -54
q0 -10 5 -15.5t14 -5.5q10 0 20.5 7.5t20.5 19.5q2 2 4.5 2.5t6.5 1.5q-1 7 0 10.5t2 6.5q1 2 4 4t7 3q1 4 1.5 8t-0.5 8q2 4 4 9t4 9q3 1 6 0t4 -3q-6 -20 -17 -41.5t-25.5 -39t-31 -29t-31.5 -11.5q-13 0 -28 8.5t-15 28.5q0 21 10.5 61t24 81.5t26 76.5t16.5 46
q3 8 -2 8.5t-11 -0.5q-8 -1 -26 -4t-37 -5q-1 0 -2.5 0.5t-1.5 3.5t1.5 6.5t6.5 6.5q16 4 32.5 7t39.5 7q5 1 10 4t9 13q2 5 5.5 10t10.5 6q-2 11 0 18t5 14q3 6 6.5 11t11.5 6q4 10 5 16.5t-1 12.5q7 15 16 31t18 33z" />
    <glyph glyph-name="u" unicode="u" horiz-adv-x="255" 
d="M92 260q12 3 18.5 -2.5t5.5 -12.5q-11 -13 -21 -27t-17 -29q-8 -5 -9.5 -10t-2.5 -10t-3.5 -10t-11.5 -9q5 -4 5 -8.5t-2 -10.5q-6 -3 -9.5 -8t-9.5 -13q8 -3 9 -7t0 -8q-2 -11 -3.5 -20t-1.5 -14q0 -10 6.5 -17t14.5 -7t25 12.5t42 55.5q8 14 18.5 35.5t21 43.5t20.5 42
t16 30q10 1 18 -3t9 -16q-17 -25 -31.5 -55.5t-24.5 -59t-16 -52t-6 -34.5q0 -12 5 -15.5t11 -3.5t13 4t14 13q3 1 5 -0.5t2 -4.5q-11 -18 -30 -28.5t-33 -10.5q-16 0 -22.5 8t-6.5 18q0 13 2 20t2 12q0 4 -3 6t-10 -7q-22 -25 -38 -33t-32 -8q-18 0 -29 10t-11 32t10 51.5
t25 59.5t32.5 57t33.5 44z" />
    <glyph glyph-name="v" unicode="v" horiz-adv-x="238" 
d="M-11 137q16 28 36 57t33 42q9 9 20 16.5t20 7.5q10 0 13.5 -7.5t3.5 -15.5q0 -19 -10.5 -48.5t-23.5 -59.5t-23.5 -58t-10.5 -44q0 -6 2.5 -9t6.5 -3q14 1 49.5 40.5t63.5 115.5q-4 4 -7 10.5t-3 13.5q0 13 7.5 20t4.5 21q5 18 14.5 28.5t21.5 10.5q6 0 10.5 -3.5
t4.5 -12.5q0 -10 -4.5 -16.5t-14.5 -11.5q0 -6 -0.5 -10t-0.5 -8q0 -15 6.5 -19t12.5 -4q9 0 14 5t11 12q2 0 4.5 -1.5t2.5 -5.5q-14 -20 -31 -30t-42 -4q-4 -11 -12.5 -30t-20.5 -41q-2 -4 -5.5 -7.5t-12.5 -6.5q2 -7 -0.5 -13t-6.5 -11q-19 -27 -42 -47t-48 -20
q-12 0 -24.5 5.5t-12.5 25.5q0 19 15 51t32 67q17 34 30.5 56.5t13.5 31.5q0 4 -2 5.5t-4 1.5q-6 0 -16.5 -11t-22.5 -26.5t-23.5 -33t-19.5 -31.5q-3 -1 -6 1t-3 4z" />
    <glyph glyph-name="w" unicode="w" horiz-adv-x="332" 
d="M-12 137q12 19 31 43.5t40 45t40 35t31 14.5q10 -1 14 -6.5t5 -12.5q0 -16 -16 -44.5t-37 -65.5q-1 -3 -7 -7t-7 -8q2 -4 -0.5 -9.5t-5.5 -11.5q-2 -4 -4 -7t-6 -6q1 -3 -0.5 -6.5t-2.5 -6.5q-4 -10 -6.5 -21t5.5 -11q7 0 15 11t14 20q9 17 23.5 43.5t31 55t35.5 55
t37 42.5q5 1 7.5 -1t3.5 -6q-9 -16 -23 -43t-27.5 -58.5t-26 -65t-18.5 -64.5q-1 -8 0 -11.5t4 -3.5t9 8.5t14 21.5q22 37 50 89.5t53 106.5q7 13 13.5 19.5t14.5 6.5q7 0 10 -4.5t3 -8.5q1 -6 -2.5 -10t-10.5 -7q2 -9 -3.5 -15t-5.5 -16q0 -14 9 -20t19 -6q13 0 20 5t12 11
q4 -1 5 -2.5t1 -5.5q-9 -12 -19.5 -19t-26.5 -7q-15 0 -28 7.5t-16 24.5q-9 -11 -15 -21.5t-13 -26.5q-4 -11 -15.5 -38.5t-27 -57t-34 -53t-37.5 -26.5q-12 1 -22 7t-10 14q0 7 7 22.5t13 28.5q5 13 1 18.5t-18 -14.5q-6 -10 -15 -23t-18.5 -24.5t-18.5 -19.5t-15 -8
q-10 0 -21.5 5.5t-11.5 15.5q1 8 9 25.5t19 37.5t22.5 40t18.5 33q16 26 28 49.5t16 32.5t1 17t-17 -2q-7 -4 -19 -16t-25 -27.5t-25.5 -32t-19.5 -28.5q-4 -2 -6 -1t-2 5z" />
    <glyph glyph-name="x" unicode="x" horiz-adv-x="241" 
d="M58 254q20 0 29.5 -11.5t13.5 -22.5q1 -5 3.5 -6t3.5 -1t3.5 1t4.5 5q11 16 28.5 29t40.5 13q15 0 26.5 -9t11.5 -26q0 -11 -5.5 -21t-18.5 -14q-3 -5 -6.5 -9.5t-9.5 -4.5q-4 0 -7 4t0 11q12 3 24 10.5t12 23.5q0 5 -5 13t-21 8q-4 0 -9 -1t-9 -3q-3 -1 -6.5 -2.5
t-6.5 -0.5q-3 -5 -6 -8.5t-6 -6.5q-9 -9 -17 -21t-14 -25q0 -31 -11.5 -48.5t-11.5 -49.5q0 -28 16.5 -43t41.5 -15q19 0 33 9t25 19q4 0 5.5 -1.5t1.5 -5.5q-16 -19 -40.5 -36.5t-52.5 -17.5q-26 0 -50 16t-24 54q0 8 -4 9.5t-11 -9.5q-4 -7 -11 -17t-17 -22q-2 -3 -5.5 -6
t-9.5 -6q-1 -4 -5 -9t-9 -10q-7 -6 -14.5 -12t-15.5 -13q-4 0 -6 1.5t-2 5.5q20 17 43 46t42 61t32 64t13 54q0 17 -5 26.5t-14 9.5q-11 0 -18.5 -8.5t-12.5 -21.5q-3 -1 -5.5 -0.5t-3.5 4.5q7 21 21.5 34t30.5 13z" />
    <glyph glyph-name="y" unicode="y" horiz-adv-x="245" 
d="M63 213q3 0 7.5 -1.5t11.5 -5.5q-6 -10 -11 -18.5t-10 -18.5q-3 -6 -7 -12t-14 -11q12 -2 10 -12.5t-4 -20.5q-4 -18 -6 -31t-2 -27q0 -20 7.5 -25t14.5 -5t15.5 3.5t16.5 10.5q9 7 14.5 17t7.5 20q10 54 23.5 95.5t29.5 41.5q12 1 18.5 -6t9.5 -12q-9 -16 -30 -72.5
t-32 -131.5q-1 -11 -3 -22l-4 -22q17 13 31 28t24 31q4 1 7 -0.5t3 -4.5q-13 -22 -30 -38.5t-39 -32.5q-6 -29 -14 -57.5t-18 -53.5q-4 -4 -6.5 -8.5t-7.5 -10.5q-1 -16 -4 -24.5t-6 -15.5q-4 -8 -11.5 -14t-10.5 -17q1 -5 -1 -11.5t-6 -11.5q-13 -21 -26.5 -33t-24.5 -12
q-9 0 -15 8.5t-6 33.5q0 51 21 105t75 92q7 4 13.5 9.5t13.5 9.5q6 34 11.5 67t7.5 42q1 7 -1 8t-6 -4q-10 -11 -28.5 -26.5t-35.5 -15.5t-31 10.5t-14 41.5q0 32 17.5 76t35.5 76q4 7 8 13t11 6zM-24 -297q0 -16 2 -23.5t9 -7.5q11 0 25 20.5t27.5 53.5t26 75t19.5 83
q-4 -3 -8.5 -6t-8.5 -6q-28 -20 -46.5 -45t-28.5 -50q-1 -3 -3 -6t-8 -7q4 -1 4 -3.5v-5.5q-1 -2 -3 -5t-1 -6q-4 -16 -5 -32t-1 -29z" />
    <glyph glyph-name="z" unicode="z" horiz-adv-x="231" 
d="M-26 69q13 17 32 51t32 68q-3 5 -4 10.5t-1 15.5q0 19 15 50.5t34 50.5q7 0 10.5 -4.5t3.5 -14.5q-4 -4 -7.5 -8t-6.5 -8q1 -14 -6 -25.5t-7 -19.5t3 -15t7 -9q17 6 34 8.5t28 3.5q7 18 17 31.5t17 14.5q7 -4 7.5 -11t-6.5 -23q-13 -30 -39 -72t-43 -69
q-6 -10 -3.5 -13.5t11.5 1.5q13 8 22.5 10.5t19.5 2.5q18 0 30.5 -21t12.5 -51q0 -5 -0.5 -10t-0.5 -10q19 7 32.5 13.5t17.5 9.5q3 0 4.5 -2t0.5 -5q-10 -5 -24.5 -12t-32.5 -14q-8 -41 -34 -86t-59 -82t-69 -61t-65 -24q-31 0 -48 16.5t-17 38.5q0 34 35.5 63t88.5 63
q27 17 61 33.5t66 30.5q1 7 1.5 15t0.5 16q0 12 -2.5 33.5t-20.5 21.5q-5 0 -14 -2.5t-16 -13.5q-5 -4 -10 -6t-13 -2t-13 2.5t-6 6.5q0 13 16.5 38t28.5 44q10 16 16.5 27t10.5 19q6 12 5.5 16t-5.5 4q-4 0 -14.5 -2t-20.5 -5q-8 -9 -19.5 -13t-18.5 -3q-6 -14 -15.5 -32.5
t-19.5 -36t-19 -31.5t-12 -18q-3 0 -5.5 1.5t-3.5 4.5zM-97 -205q0 -13 11 -28.5t43 -15.5q22 0 51 18t56 48t48.5 70.5t28.5 86.5q-31 -14 -63.5 -30t-56.5 -31q-49 -31 -83.5 -59t-34.5 -59z" />
    <glyph glyph-name="dieresis" unicode="&#xa8;" horiz-adv-x="250" 
d="M217 419q0 16 12 35t32 19q5 0 8 -2.5t1 -5.5q-11 0 -15 -9.5t-4 -16.5q0 -8 3 -15.5t10 -11.5q0 -9 -6 -16.5t-17 -7.5q-13 0 -18.5 9t-5.5 22zM162 450q12 0 16 -6.5t4 -14.5q0 -13 -6.5 -20t-6.5 -20q0 -6 2.5 -10t9.5 -4q5 0 9.5 4t5.5 11q4 1 6.5 1t2.5 -6
q-4 -13 -16 -22.5t-25 -9.5t-22.5 11t-9.5 32q0 14 7 32t23 22z" />
    <glyph glyph-name="acute" unicode="&#xb4;" horiz-adv-x="250" 
d="M217 451q2 13 11 17.5t16 4.5q10 0 14.5 -8t4.5 -16t-3.5 -16.5t-7.5 -16.5q-1 -2 -4 -4.5t-12 -2.5q1 -5 -1 -9t-3 -7q-3 -2 -6.5 -3.5t-7.5 -1.5q1 -7 -2 -9.5t-3 -6.5l-12.5 -12.5l-9.5 -9.5q-3 -2 -5.5 -3t-5.5 -1t-5.5 1.5t-3.5 5.5q2 3 12.5 14.5t19.5 29.5
q5 10 9 25.5t5 28.5z" />
    <glyph glyph-name="cedilla" unicode="&#xb8;" horiz-adv-x="250" 
d="M33 -4h12q0 -7 -7.5 -18t-16.5 -21q5 3 14 6t22 3q26 0 36 -15.5t10 -28.5q0 -27 -19 -41.5t-44 -14.5q-20 0 -33 7.5t-19 16.5l2 4t5 2q4 -4 12 -9.5t21 -5.5q16 0 28 9t12 29q0 16 -10 24.5t-23 8.5q-6 0 -10.5 -1.5t-8.5 -3.5l-2.5 2.5t-3.5 6.5q7 7 13.5 18t9.5 22z
" />
    <glyph glyph-name="Agrave" unicode="&#xc0;" horiz-adv-x="985" 
d="M464 87q3 84 40 155.5t88 122t107 79t96 28.5t54 -22.5t14 -54.5q0 -65 -27.5 -127.5t-70 -116.5t-96.5 -98.5t-106 -74.5q23 -21 57.5 -31.5t80.5 -10.5q54 0 111 24.5t93 86.5q2 1 4.5 -0.5t2.5 -4.5q-11 -25 -36 -52t-58.5 -49t-74.5 -36.5t-83 -14.5q-55 0 -93 16.5
t-61 43.5q-26 -10 -49 -16t-42 -6q-57 0 -80.5 28t-23.5 64q0 39 18.5 87.5t46 97.5t60.5 95.5t61 83.5q25 40 52 77t53 70q-29 -13 -61.5 -31.5t-67.5 -44.5q-16 -11 -32.5 -23.5t-33.5 -25.5q-72 -103 -131 -197.5t-130 -169.5q-30 -31 -61 -60t-68 -29q-6 0 -13 2t-11 6
q0 3 2 5.5t5 3.5q2 -2 6 -3.5t11 -1.5q31 0 60.5 26.5t60.5 59.5q58 63 115.5 150t126.5 188q-47 -36 -97 -74.5t-98.5 -74.5t-94.5 -67t-85 -51q-4 0 -6 3.5t-1 7.5q39 19 88.5 51.5t102 71.5t107 81.5t104.5 80.5q43 61 95 115t101 94t89 63t58 23q5 0 8.5 -2t4.5 -6
q1 -5 -29 -39.5t-73 -86.5q44 19 83.5 27t75.5 8q6 0 10.5 -0.5t11.5 -1.5q2 -10 7.5 -12t12 -0.5t12.5 3.5t10 -1q4 -9 8 -6.5t6 3.5q4 -1 7.5 -5t8.5 -17q1 10 4.5 10.5t6.5 -1.5q31 -19 45.5 -53.5t14.5 -68.5q0 -9 -1 -17t-2 -14q-2 0 -3.5 0.5t-2.5 1.5q0 22 -5.5 46.5
t-22.5 45t-49.5 34t-85.5 13.5q-43 0 -87.5 -5.5t-93.5 -24.5q-29 -37 -59.5 -79t-56.5 -87q-64 -107 -107 -192.5t-43 -151.5q0 -31 17 -50t61 -19q13 0 27 2t28 6q-15 25 -21.5 55.5t-6.5 61.5zM737 698q-14 0 -49 -21t-78.5 -56t-91.5 -83t-89 -101q10 7 19 14t18 13
q45 34 85.5 59t77.5 42q47 57 80 92.5t32 38.5q0 1 -1 1.5t-3 0.5zM513 117q0 -40 9 -71.5t28 -53.5q54 26 108.5 71.5t97 100t69.5 114.5t27 117q0 33 -13.5 49.5t-43.5 16.5q-34 0 -82.5 -24t-93 -68t-75.5 -108.5t-31 -143.5zM710 897q10 0 16.5 -7t6.5 -21
q-2 -10 -4 -18t-2 -16q0 -12 5.5 -29t12.5 -30q-1 -5 -3 -6.5t-9 -1.5q-13 13 -31 41.5t-18 53.5q0 16 8 25t18 9z" />
    <glyph glyph-name="Aacute" unicode="&#xc1;" horiz-adv-x="904" 
d="M464 87q3 84 40 155.5t88 122t107 79t96 28.5t54 -22.5t14 -54.5q0 -65 -27.5 -127.5t-70 -116.5t-96.5 -98.5t-106 -74.5q23 -21 57.5 -31.5t80.5 -10.5q54 0 111 24.5t93 86.5q2 1 4.5 -0.5t2.5 -4.5q-11 -25 -36 -52t-58.5 -49t-74.5 -36.5t-83 -14.5q-55 0 -93 16.5
t-61 43.5q-26 -10 -49 -16t-42 -6q-57 0 -80.5 28t-23.5 64q0 39 18.5 87.5t46 97.5t60.5 95.5t61 83.5q25 40 52 77t53 70q-29 -13 -61.5 -31.5t-67.5 -44.5q-16 -11 -32.5 -23.5t-33.5 -25.5q-72 -103 -131 -197.5t-130 -169.5q-30 -31 -61 -60t-68 -29q-6 0 -13 2t-11 6
q0 3 2 5.5t5 3.5q2 -2 6 -3.5t11 -1.5q31 0 60.5 26.5t60.5 59.5q58 63 115.5 150t126.5 188q-47 -36 -97 -74.5t-98.5 -74.5t-94.5 -67t-85 -51q-4 0 -6 3.5t-1 7.5q39 19 88.5 51.5t102 71.5t107 81.5t104.5 80.5q43 61 95 115t101 94t89 63t58 23q5 0 8.5 -2t4.5 -6
q1 -5 -29 -39.5t-73 -86.5q44 19 83.5 27t75.5 8q6 0 10.5 -0.5t11.5 -1.5q2 -10 7.5 -12t12 -0.5t12.5 3.5t10 -1q4 -9 8 -6.5t6 3.5q4 -1 7.5 -5t8.5 -17q1 10 4.5 10.5t6.5 -1.5q31 -19 45.5 -53.5t14.5 -68.5q0 -9 -1 -17t-2 -14q-2 0 -3.5 0.5t-2.5 1.5q0 22 -5.5 46.5
t-22.5 45t-49.5 34t-85.5 13.5q-43 0 -87.5 -5.5t-93.5 -24.5q-29 -37 -59.5 -79t-56.5 -87q-64 -107 -107 -192.5t-43 -151.5q0 -31 17 -50t61 -19q13 0 27 2t28 6q-15 25 -21.5 55.5t-6.5 61.5zM737 698q-14 0 -49 -21t-78.5 -56t-91.5 -83t-89 -101q10 7 19 14t18 13
q45 34 85.5 59t77.5 42q47 57 80 92.5t32 38.5q0 1 -1 1.5t-3 0.5zM513 117q0 -40 9 -71.5t28 -53.5q54 26 108.5 71.5t97 100t69.5 114.5t27 117q0 33 -13.5 49.5t-43.5 16.5q-34 0 -82.5 -24t-93 -68t-75.5 -108.5t-31 -143.5zM735 871q2 13 11 17.5t16 4.5q10 0 14.5 -8
t4.5 -16t-3.5 -16.5t-7.5 -16.5q-1 -2 -4 -4.5t-12 -2.5q1 -5 -1 -9t-3 -7q-3 -2 -6.5 -3.5t-7.5 -1.5q1 -7 -2 -9.5t-3 -6.5l-12.5 -12.5l-9.5 -9.5q-3 -2 -5.5 -3t-5.5 -1t-5.5 1.5t-3.5 5.5q2 3 12.5 14.5t19.5 29.5q5 10 9 25.5t5 28.5z" />
    <glyph glyph-name="Acircumflex" unicode="&#xc2;" horiz-adv-x="904" 
d="M464 87q3 84 40 155.5t88 122t107 79t96 28.5t54 -22.5t14 -54.5q0 -65 -27.5 -127.5t-70 -116.5t-96.5 -98.5t-106 -74.5q23 -21 57.5 -31.5t80.5 -10.5q54 0 111 24.5t93 86.5q2 1 4.5 -0.5t2.5 -4.5q-11 -25 -36 -52t-58.5 -49t-74.5 -36.5t-83 -14.5q-55 0 -93 16.5
t-61 43.5q-26 -10 -49 -16t-42 -6q-57 0 -80.5 28t-23.5 64q0 39 18.5 87.5t46 97.5t60.5 95.5t61 83.5q25 40 52 77t53 70q-29 -13 -61.5 -31.5t-67.5 -44.5q-16 -11 -32.5 -23.5t-33.5 -25.5q-72 -103 -131 -197.5t-130 -169.5q-30 -31 -61 -60t-68 -29q-6 0 -13 2t-11 6
q0 3 2 5.5t5 3.5q2 -2 6 -3.5t11 -1.5q31 0 60.5 26.5t60.5 59.5q58 63 115.5 150t126.5 188q-47 -36 -97 -74.5t-98.5 -74.5t-94.5 -67t-85 -51q-4 0 -6 3.5t-1 7.5q39 19 88.5 51.5t102 71.5t107 81.5t104.5 80.5q43 61 95 115t101 94t89 63t58 23q5 0 8.5 -2t4.5 -6
q1 -5 -29 -39.5t-73 -86.5q44 19 83.5 27t75.5 8q6 0 10.5 -0.5t11.5 -1.5q2 -10 7.5 -12t12 -0.5t12.5 3.5t10 -1q4 -9 8 -6.5t6 3.5q4 -1 7.5 -5t8.5 -17q1 10 4.5 10.5t6.5 -1.5q31 -19 45.5 -53.5t14.5 -68.5q0 -9 -1 -17t-2 -14q-2 0 -3.5 0.5t-2.5 1.5q0 22 -5.5 46.5
t-22.5 45t-49.5 34t-85.5 13.5q-43 0 -87.5 -5.5t-93.5 -24.5q-29 -37 -59.5 -79t-56.5 -87q-64 -107 -107 -192.5t-43 -151.5q0 -31 17 -50t61 -19q13 0 27 2t28 6q-15 25 -21.5 55.5t-6.5 61.5zM737 698q-14 0 -49 -21t-78.5 -56t-91.5 -83t-89 -101q10 7 19 14t18 13
q45 34 85.5 59t77.5 42q47 57 80 92.5t32 38.5q0 1 -1 1.5t-3 0.5zM513 117q0 -40 9 -71.5t28 -53.5q54 26 108.5 71.5t97 100t69.5 114.5t27 117q0 33 -13.5 49.5t-43.5 16.5q-34 0 -82.5 -24t-93 -68t-75.5 -108.5t-31 -143.5zM752 894v-41q0 -32 6 -44t17 -23l-1.5 -5
t-12.5 -5q-24 6 -36 24t-16 33q-13 -34 -42.5 -56t-44.5 -27q-4 -6 -7.5 -7.5t-5.5 -1.5q-6 0 -7 2.5t-1 8.5q20 9 37.5 23t30.5 29t23 29t15 23q1 6 2 11t4 10q4 7 10.5 12t16.5 6h8t4 -1z" />
    <glyph glyph-name="Adieresis" unicode="&#xc4;" horiz-adv-x="985" 
d="M464 87q3 84 40 155.5t88 122t107 79t96 28.5t54 -22.5t14 -54.5q0 -65 -27.5 -127.5t-70 -116.5t-96.5 -98.5t-106 -74.5q23 -21 57.5 -31.5t80.5 -10.5q54 0 111 24.5t93 86.5q2 1 4.5 -0.5t2.5 -4.5q-11 -25 -36 -52t-58.5 -49t-74.5 -36.5t-83 -14.5q-55 0 -93 16.5
t-61 43.5q-26 -10 -49 -16t-42 -6q-57 0 -80.5 28t-23.5 64q0 39 18.5 87.5t46 97.5t60.5 95.5t61 83.5q25 40 52 77t53 70q-29 -13 -61.5 -31.5t-67.5 -44.5q-16 -11 -32.5 -23.5t-33.5 -25.5q-72 -103 -131 -197.5t-130 -169.5q-30 -31 -61 -60t-68 -29q-6 0 -13 2t-11 6
q0 3 2 5.5t5 3.5q2 -2 6 -3.5t11 -1.5q31 0 60.5 26.5t60.5 59.5q58 63 115.5 150t126.5 188q-47 -36 -97 -74.5t-98.5 -74.5t-94.5 -67t-85 -51q-4 0 -6 3.5t-1 7.5q39 19 88.5 51.5t102 71.5t107 81.5t104.5 80.5q43 61 95 115t101 94t89 63t58 23q5 0 8.5 -2t4.5 -6
q1 -5 -29 -39.5t-73 -86.5q44 19 83.5 27t75.5 8q6 0 10.5 -0.5t11.5 -1.5q2 -10 7.5 -12t12 -0.5t12.5 3.5t10 -1q4 -9 8 -6.5t6 3.5q4 -1 7.5 -5t8.5 -17q1 10 4.5 10.5t6.5 -1.5q31 -19 45.5 -53.5t14.5 -68.5q0 -9 -1 -17t-2 -14q-2 0 -3.5 0.5t-2.5 1.5q0 22 -5.5 46.5
t-22.5 45t-49.5 34t-85.5 13.5q-43 0 -87.5 -5.5t-93.5 -24.5q-29 -37 -59.5 -79t-56.5 -87q-64 -107 -107 -192.5t-43 -151.5q0 -31 17 -50t61 -19q13 0 27 2t28 6q-15 25 -21.5 55.5t-6.5 61.5zM737 698q-14 0 -49 -21t-78.5 -56t-91.5 -83t-89 -101q10 7 19 14t18 13
q45 34 85.5 59t77.5 42q47 57 80 92.5t32 38.5q0 1 -1 1.5t-3 0.5zM513 117q0 -40 9 -71.5t28 -53.5q54 26 108.5 71.5t97 100t69.5 114.5t27 117q0 33 -13.5 49.5t-43.5 16.5q-34 0 -82.5 -24t-93 -68t-75.5 -108.5t-31 -143.5zM735 839q0 16 12 35t32 19q5 0 8 -2.5
t1 -5.5q-11 0 -15 -9.5t-4 -16.5q0 -8 3 -15.5t10 -11.5q0 -9 -6 -16.5t-17 -7.5q-13 0 -18.5 9t-5.5 22zM680 870q12 0 16 -6.5t4 -14.5q0 -13 -6.5 -20t-6.5 -20q0 -6 2.5 -10t9.5 -4q5 0 9.5 4t5.5 11q4 1 6.5 1t2.5 -6q-4 -13 -16 -22.5t-25 -9.5t-22.5 11t-9.5 32
q0 14 7 32t23 22z" />
    <glyph glyph-name="Ccedilla" unicode="&#xc7;" horiz-adv-x="754" 
d="M397 -141q-13 0 -16.5 -3.5t-12.5 -2.5q-8 2 -12.5 3t-8.5 -3q-4 0 -8.5 1.5t-14.5 8.5q-4 1 -7 -1t-7 -5q-26 5 -44.5 18t-28.5 31q-31 12 -49.5 41.5t-18.5 76.5q0 66 35 146.5t94 161.5l-24 -2t-23 -1q-73 0 -112 22t-39 71q0 48 38.5 99t96.5 93t127.5 69t131.5 27
q20 0 33 -4.5t17 -9.5q0 -3 -2 -5t-5 -2q-7 7 -17.5 9t-25.5 2q-54 0 -116 -25t-114.5 -64.5t-87 -89.5t-34.5 -100q0 -53 34 -66.5t76 -13.5q13 0 27 1t28 3q54 71 122.5 137.5t142.5 116.5t152 80.5t150 30.5q15 0 23.5 -5.5t8.5 -18.5q0 -28 -52.5 -79.5t-133.5 -104.5
t-181.5 -99.5t-195.5 -64.5q-51 -76 -77 -152t-26 -146q0 -10 0.5 -19t1.5 -17q21 49 67 104.5t103.5 101.5t122 77t120.5 31q33 0 45 -16t12 -42q0 -49 -49 -112t-116.5 -118.5t-140 -94t-118.5 -38.5q12 -10 30.5 -16t43.5 -6q65 0 119.5 27t91.5 52q2 0 3.5 -3t1.5 -5
q-7 -6 -25.5 -17.5t-43.5 -24.5t-54.5 -25.5t-57.5 -19.5zM482 503q-4 1 -9.5 -0.5t-10.5 -6.5q1 -2 0 -9.5t-7 -12.5q-3 -3 -7.5 -4.5t-10.5 -1.5q-1 -5 -3 -9t-3 -10q-22 -24 -42 -48t-36 -48q91 19 187.5 64t175.5 96t129.5 99t50.5 73q0 9 -7.5 12t-14.5 3
q-91 0 -186 -49.5t-179 -123.5q-4 -3 -8 -5.5t-7 1.5q-4 -10 -6.5 -14t-5.5 -6zM655 308q-58 0 -125.5 -37t-125.5 -90.5t-97.5 -114.5t-42.5 -108q10 -8 26 -12.5t39 -4.5q49 0 114 35t122 84t97 104.5t40 95.5q0 23 -11 35.5t-36 12.5zM299 -139h12q0 -7 -7.5 -18
t-16.5 -21q5 3 14 6t22 3q26 0 36 -15.5t10 -28.5q0 -27 -19 -41.5t-44 -14.5q-20 0 -33 7.5t-19 16.5l2 4t5 2q4 -4 12 -9.5t21 -5.5q16 0 28 9t12 29q0 16 -10 24.5t-23 8.5q-6 0 -10.5 -1.5t-8.5 -3.5l-2.5 2.5t-3.5 6.5q7 7 13.5 18t9.5 22z" />
    <glyph glyph-name="Egrave" unicode="&#xc8;" horiz-adv-x="757" 
d="M362 -46q-28 -8 -56.5 -12.5t-54.5 -4.5h-7.5h-7.5q-4 -12 -6 -23.5t-2 -21.5q0 -25 13.5 -47.5t57.5 -22.5q34 0 56.5 6t51.5 20q1 -1 2.5 -3t1.5 -4q-13 -7 -42.5 -19t-70.5 -12q-17 0 -36 3.5t-35.5 13t-27 25.5t-10.5 40q0 11 2.5 24t7.5 26q-55 10 -87.5 42
t-32.5 80q0 13 1.5 25t5.5 24q3 10 6 19t4 19q7 7 12.5 11.5t17.5 1.5q-4 14 -1.5 21t6.5 12q37 46 90 82t106 58q-12 10 -18 23.5t-6 29.5v2.5v2.5q-12 -2 -23.5 -4t-21.5 -3q-8 -1 -15.5 -1t-13.5 2q-7 -4 -12.5 -5.5t-12.5 -2.5q-6 7 -12.5 9t-12.5 -4q-4 -1 -7.5 -1
t-6.5 3q0 9 -3.5 11t-15.5 -6q-21 9 -31.5 24.5t-10.5 32.5q0 39 27 79.5t66.5 72.5t86.5 53t87 21q11 0 19.5 -4.5t12.5 -15.5q0 -3 -3 -4.5t-7 -0.5q-1 6 -6 11.5t-15 5.5q-28 0 -66.5 -20t-72 -51.5t-57.5 -71t-24 -78.5q0 -28 19 -38.5t44 -10.5q19 0 42 2.5t48 6.5
q8 49 58.5 103t124 98.5t162 73.5t173.5 29q30 0 44 -9t14 -22q0 -30 -50.5 -69.5t-127 -78.5t-169.5 -73t-177 -53q-1 -3 -1 -5.5v-5.5q0 -12 2.5 -23t8.5 -20q24 7 46.5 11.5t40.5 4.5q27 0 35.5 -8t8.5 -18t-8 -16.5t-19 -10t-22.5 -4.5t-17.5 -1q-29 0 -52 4.5t-39 14.5
q-40 -18 -76.5 -47t-64.5 -64.5t-45 -76.5t-17 -84t19.5 -66.5t48.5 -33.5q23 54 73.5 115.5t114.5 114t134.5 87t133.5 34.5q45 0 55 -20t10 -38q0 -32 -23.5 -69.5t-63 -73.5t-91 -68.5t-106.5 -55.5q-5 1 -13 -0.5t-12 -9.5q-5 -4 -14.5 -5.5t-19.5 -0.5q-3 -6 -8 -9.5
t-13 -3.5zM821 703q-60 0 -136 -25.5t-144.5 -66t-119.5 -92t-62 -101.5q81 19 171.5 52t166 70t125 74t49.5 65q0 13 -14 18.5t-36 5.5zM454 356q-19 0 -39.5 -3.5t-40.5 -10.5q9 -9 23 -14.5t34 -5.5q22 0 38.5 5t16.5 15q0 5 -6.5 9.5t-25.5 4.5zM661 297
q-59 0 -124.5 -35t-124 -86.5t-105 -112.5t-66.5 -112q4 -1 8.5 -1h8.5q70 0 150.5 30.5t148.5 75.5t113 97.5t45 96.5q0 29 -16 38t-38 9zM666 897q10 0 16.5 -7t6.5 -21q-2 -10 -4 -18t-2 -16q0 -12 5.5 -29t12.5 -30q-1 -5 -3 -6.5t-9 -1.5q-13 13 -31 41.5t-18 53.5
q0 16 8 25t18 9z" />
    <glyph glyph-name="Eacute" unicode="&#xc9;" horiz-adv-x="757" 
d="M362 -46q-28 -8 -56.5 -12.5t-54.5 -4.5h-7.5h-7.5q-4 -12 -6 -23.5t-2 -21.5q0 -25 13.5 -47.5t57.5 -22.5q34 0 56.5 6t51.5 20q1 -1 2.5 -3t1.5 -4q-13 -7 -42.5 -19t-70.5 -12q-17 0 -36 3.5t-35.5 13t-27 25.5t-10.5 40q0 11 2.5 24t7.5 26q-55 10 -87.5 42
t-32.5 80q0 13 1.5 25t5.5 24q3 10 6 19t4 19q7 7 12.5 11.5t17.5 1.5q-4 14 -1.5 21t6.5 12q37 46 90 82t106 58q-12 10 -18 23.5t-6 29.5v2.5v2.5q-12 -2 -23.5 -4t-21.5 -3q-8 -1 -15.5 -1t-13.5 2q-7 -4 -12.5 -5.5t-12.5 -2.5q-6 7 -12.5 9t-12.5 -4q-4 -1 -7.5 -1
t-6.5 3q0 9 -3.5 11t-15.5 -6q-21 9 -31.5 24.5t-10.5 32.5q0 39 27 79.5t66.5 72.5t86.5 53t87 21q11 0 19.5 -4.5t12.5 -15.5q0 -3 -3 -4.5t-7 -0.5q-1 6 -6 11.5t-15 5.5q-28 0 -66.5 -20t-72 -51.5t-57.5 -71t-24 -78.5q0 -28 19 -38.5t44 -10.5q19 0 42 2.5t48 6.5
q8 49 58.5 103t124 98.5t162 73.5t173.5 29q30 0 44 -9t14 -22q0 -30 -50.5 -69.5t-127 -78.5t-169.5 -73t-177 -53q-1 -3 -1 -5.5v-5.5q0 -12 2.5 -23t8.5 -20q24 7 46.5 11.5t40.5 4.5q27 0 35.5 -8t8.5 -18t-8 -16.5t-19 -10t-22.5 -4.5t-17.5 -1q-29 0 -52 4.5t-39 14.5
q-40 -18 -76.5 -47t-64.5 -64.5t-45 -76.5t-17 -84t19.5 -66.5t48.5 -33.5q23 54 73.5 115.5t114.5 114t134.5 87t133.5 34.5q45 0 55 -20t10 -38q0 -32 -23.5 -69.5t-63 -73.5t-91 -68.5t-106.5 -55.5q-5 1 -13 -0.5t-12 -9.5q-5 -4 -14.5 -5.5t-19.5 -0.5q-3 -6 -8 -9.5
t-13 -3.5zM821 703q-60 0 -136 -25.5t-144.5 -66t-119.5 -92t-62 -101.5q81 19 171.5 52t166 70t125 74t49.5 65q0 13 -14 18.5t-36 5.5zM454 356q-19 0 -39.5 -3.5t-40.5 -10.5q9 -9 23 -14.5t34 -5.5q22 0 38.5 5t16.5 15q0 5 -6.5 9.5t-25.5 4.5zM661 297
q-59 0 -124.5 -35t-124 -86.5t-105 -112.5t-66.5 -112q4 -1 8.5 -1h8.5q70 0 150.5 30.5t148.5 75.5t113 97.5t45 96.5q0 29 -16 38t-38 9zM691 871q2 13 11 17.5t16 4.5q10 0 14.5 -8t4.5 -16t-3.5 -16.5t-7.5 -16.5q-1 -2 -4 -4.5t-12 -2.5q1 -5 -1 -9t-3 -7
q-3 -2 -6.5 -3.5t-7.5 -1.5q1 -7 -2 -9.5t-3 -6.5l-12.5 -12.5l-9.5 -9.5q-3 -2 -5.5 -3t-5.5 -1t-5.5 1.5t-3.5 5.5q2 3 12.5 14.5t19.5 29.5q5 10 9 25.5t5 28.5z" />
    <glyph glyph-name="Ecircumflex" unicode="&#xca;" horiz-adv-x="757" 
d="M362 -46q-28 -8 -56.5 -12.5t-54.5 -4.5h-7.5h-7.5q-4 -12 -6 -23.5t-2 -21.5q0 -25 13.5 -47.5t57.5 -22.5q34 0 56.5 6t51.5 20q1 -1 2.5 -3t1.5 -4q-13 -7 -42.5 -19t-70.5 -12q-17 0 -36 3.5t-35.5 13t-27 25.5t-10.5 40q0 11 2.5 24t7.5 26q-55 10 -87.5 42
t-32.5 80q0 13 1.5 25t5.5 24q3 10 6 19t4 19q7 7 12.5 11.5t17.5 1.5q-4 14 -1.5 21t6.5 12q37 46 90 82t106 58q-12 10 -18 23.5t-6 29.5v2.5v2.5q-12 -2 -23.5 -4t-21.5 -3q-8 -1 -15.5 -1t-13.5 2q-7 -4 -12.5 -5.5t-12.5 -2.5q-6 7 -12.5 9t-12.5 -4q-4 -1 -7.5 -1
t-6.5 3q0 9 -3.5 11t-15.5 -6q-21 9 -31.5 24.5t-10.5 32.5q0 39 27 79.5t66.5 72.5t86.5 53t87 21q11 0 19.5 -4.5t12.5 -15.5q0 -3 -3 -4.5t-7 -0.5q-1 6 -6 11.5t-15 5.5q-28 0 -66.5 -20t-72 -51.5t-57.5 -71t-24 -78.5q0 -28 19 -38.5t44 -10.5q19 0 42 2.5t48 6.5
q8 49 58.5 103t124 98.5t162 73.5t173.5 29q30 0 44 -9t14 -22q0 -30 -50.5 -69.5t-127 -78.5t-169.5 -73t-177 -53q-1 -3 -1 -5.5v-5.5q0 -12 2.5 -23t8.5 -20q24 7 46.5 11.5t40.5 4.5q27 0 35.5 -8t8.5 -18t-8 -16.5t-19 -10t-22.5 -4.5t-17.5 -1q-29 0 -52 4.5t-39 14.5
q-40 -18 -76.5 -47t-64.5 -64.5t-45 -76.5t-17 -84t19.5 -66.5t48.5 -33.5q23 54 73.5 115.5t114.5 114t134.5 87t133.5 34.5q45 0 55 -20t10 -38q0 -32 -23.5 -69.5t-63 -73.5t-91 -68.5t-106.5 -55.5q-5 1 -13 -0.5t-12 -9.5q-5 -4 -14.5 -5.5t-19.5 -0.5q-3 -6 -8 -9.5
t-13 -3.5zM821 703q-60 0 -136 -25.5t-144.5 -66t-119.5 -92t-62 -101.5q81 19 171.5 52t166 70t125 74t49.5 65q0 13 -14 18.5t-36 5.5zM454 356q-19 0 -39.5 -3.5t-40.5 -10.5q9 -9 23 -14.5t34 -5.5q22 0 38.5 5t16.5 15q0 5 -6.5 9.5t-25.5 4.5zM661 297
q-59 0 -124.5 -35t-124 -86.5t-105 -112.5t-66.5 -112q4 -1 8.5 -1h8.5q70 0 150.5 30.5t148.5 75.5t113 97.5t45 96.5q0 29 -16 38t-38 9zM718 894v-41q0 -32 6 -44t17 -23l-1.5 -5t-12.5 -5q-24 6 -36 24t-16 33q-13 -34 -42.5 -56t-44.5 -27q-4 -6 -7.5 -7.5t-5.5 -1.5
q-6 0 -7 2.5t-1 8.5q20 9 37.5 23t30.5 29t23 29t15 23q1 6 2 11t4 10q4 7 10.5 12t16.5 6h8t4 -1z" />
    <glyph glyph-name="Edieresis" unicode="&#xcb;" horiz-adv-x="757" 
d="M362 -46q-28 -8 -56.5 -12.5t-54.5 -4.5h-7.5h-7.5q-4 -12 -6 -23.5t-2 -21.5q0 -25 13.5 -47.5t57.5 -22.5q34 0 56.5 6t51.5 20q1 -1 2.5 -3t1.5 -4q-13 -7 -42.5 -19t-70.5 -12q-17 0 -36 3.5t-35.5 13t-27 25.5t-10.5 40q0 11 2.5 24t7.5 26q-55 10 -87.5 42
t-32.5 80q0 13 1.5 25t5.5 24q3 10 6 19t4 19q7 7 12.5 11.5t17.5 1.5q-4 14 -1.5 21t6.5 12q37 46 90 82t106 58q-12 10 -18 23.5t-6 29.5v2.5v2.5q-12 -2 -23.5 -4t-21.5 -3q-8 -1 -15.5 -1t-13.5 2q-7 -4 -12.5 -5.5t-12.5 -2.5q-6 7 -12.5 9t-12.5 -4q-4 -1 -7.5 -1
t-6.5 3q0 9 -3.5 11t-15.5 -6q-21 9 -31.5 24.5t-10.5 32.5q0 39 27 79.5t66.5 72.5t86.5 53t87 21q11 0 19.5 -4.5t12.5 -15.5q0 -3 -3 -4.5t-7 -0.5q-1 6 -6 11.5t-15 5.5q-28 0 -66.5 -20t-72 -51.5t-57.5 -71t-24 -78.5q0 -28 19 -38.5t44 -10.5q19 0 42 2.5t48 6.5
q8 49 58.5 103t124 98.5t162 73.5t173.5 29q30 0 44 -9t14 -22q0 -30 -50.5 -69.5t-127 -78.5t-169.5 -73t-177 -53q-1 -3 -1 -5.5v-5.5q0 -12 2.5 -23t8.5 -20q24 7 46.5 11.5t40.5 4.5q27 0 35.5 -8t8.5 -18t-8 -16.5t-19 -10t-22.5 -4.5t-17.5 -1q-29 0 -52 4.5t-39 14.5
q-40 -18 -76.5 -47t-64.5 -64.5t-45 -76.5t-17 -84t19.5 -66.5t48.5 -33.5q23 54 73.5 115.5t114.5 114t134.5 87t133.5 34.5q45 0 55 -20t10 -38q0 -32 -23.5 -69.5t-63 -73.5t-91 -68.5t-106.5 -55.5q-5 1 -13 -0.5t-12 -9.5q-5 -4 -14.5 -5.5t-19.5 -0.5q-3 -6 -8 -9.5
t-13 -3.5zM821 703q-60 0 -136 -25.5t-144.5 -66t-119.5 -92t-62 -101.5q81 19 171.5 52t166 70t125 74t49.5 65q0 13 -14 18.5t-36 5.5zM454 356q-19 0 -39.5 -3.5t-40.5 -10.5q9 -9 23 -14.5t34 -5.5q22 0 38.5 5t16.5 15q0 5 -6.5 9.5t-25.5 4.5zM661 297
q-59 0 -124.5 -35t-124 -86.5t-105 -112.5t-66.5 -112q4 -1 8.5 -1h8.5q70 0 150.5 30.5t148.5 75.5t113 97.5t45 96.5q0 29 -16 38t-38 9zM706 839q0 16 12 35t32 19q5 0 8 -2.5t1 -5.5q-11 0 -15 -9.5t-4 -16.5q0 -8 3 -15.5t10 -11.5q0 -9 -6 -16.5t-17 -7.5
q-13 0 -18.5 9t-5.5 22zM651 870q12 0 16 -6.5t4 -14.5q0 -13 -6.5 -20t-6.5 -20q0 -6 2.5 -10t9.5 -4q5 0 9.5 4t5.5 11q4 1 6.5 1t2.5 -6q-4 -13 -16 -22.5t-25 -9.5t-22.5 11t-9.5 32q0 14 7 32t23 22z" />
    <glyph glyph-name="Igrave" unicode="&#xcc;" 
d="M598 710q19 0 25 -8.5t6 -18.5q0 -19 -35.5 -46t-119.5 -60q-10 -32 -27.5 -74.5t-42.5 -83.5q-22 -91 -51 -185.5t-63 -170.5t-74 -124.5t-85 -48.5q-37 0 -68 29.5t-31 90.5q0 47 18 85t44 64t54 40t48 14q19 0 29 -10t10 -28q0 -29 -14 -49.5t-31 -29.5q-4 0 -7 1.5
t-5 3.5q0 14 12.5 38t12.5 43q0 7 -2.5 14t-12.5 7q-13 0 -37.5 -13t-48.5 -38t-41.5 -61.5t-17.5 -82.5q0 -29 8.5 -49.5t21.5 -33t28.5 -18t29.5 -5.5q41 0 74 57t60 136.5t50 166t44 144.5q11 31 23 58.5t23 52.5q3 6 7.5 11.5t16.5 7.5q0 7 1.5 14t3.5 12
q-19 -7 -41 -14t-46 -14q-124 -50 -174 -102.5t-50 -88.5q0 -11 7.5 -16t17.5 -5q16 0 37 7t41 18t36 24t21 25q10 19 15 31t12 22q6 3 9.5 1.5t6.5 -5.5q-8 -24 -18.5 -40.5t-21.5 -26.5q-10 -11 -28.5 -23t-38 -21.5t-39 -16t-32.5 -6.5q-22 0 -29 10.5t-7 21.5
q0 29 19 57.5t50 54.5t72 48.5t85 39.5q22 7 46.5 15t48.5 16q3 1 5.5 2t5.5 2q4 4 8.5 7t9.5 5q-4 12 -1.5 18t6.5 11t8.5 10.5t8.5 10.5q9 -1 11 6.5t6 11.5q3 3 7.5 5.5t13.5 2.5q-1 7 3.5 12t9.5 8q18 13 34 18.5t29 5.5zM485 612q-1 -4 -3 -10l-4 -12q57 22 98.5 46
t41.5 47q0 5 -5 10.5t-15 5.5q-18 0 -35 -9t-31 -22.5t-26 -28.5t-21 -27zM435 897q10 0 16.5 -7t6.5 -21q-2 -10 -4 -18t-2 -16q0 -12 5.5 -29t12.5 -30q-1 -5 -3 -6.5t-9 -1.5q-13 13 -31 41.5t-18 53.5q0 16 8 25t18 9z" />
    <glyph glyph-name="Iacute" unicode="&#xcd;" 
d="M598 710q19 0 25 -8.5t6 -18.5q0 -19 -35.5 -46t-119.5 -60q-10 -32 -27.5 -74.5t-42.5 -83.5q-22 -91 -51 -185.5t-63 -170.5t-74 -124.5t-85 -48.5q-37 0 -68 29.5t-31 90.5q0 47 18 85t44 64t54 40t48 14q19 0 29 -10t10 -28q0 -29 -14 -49.5t-31 -29.5q-4 0 -7 1.5
t-5 3.5q0 14 12.5 38t12.5 43q0 7 -2.5 14t-12.5 7q-13 0 -37.5 -13t-48.5 -38t-41.5 -61.5t-17.5 -82.5q0 -29 8.5 -49.5t21.5 -33t28.5 -18t29.5 -5.5q41 0 74 57t60 136.5t50 166t44 144.5q11 31 23 58.5t23 52.5q3 6 7.5 11.5t16.5 7.5q0 7 1.5 14t3.5 12
q-19 -7 -41 -14t-46 -14q-124 -50 -174 -102.5t-50 -88.5q0 -11 7.5 -16t17.5 -5q16 0 37 7t41 18t36 24t21 25q10 19 15 31t12 22q6 3 9.5 1.5t6.5 -5.5q-8 -24 -18.5 -40.5t-21.5 -26.5q-10 -11 -28.5 -23t-38 -21.5t-39 -16t-32.5 -6.5q-22 0 -29 10.5t-7 21.5
q0 29 19 57.5t50 54.5t72 48.5t85 39.5q22 7 46.5 15t48.5 16q3 1 5.5 2t5.5 2q4 4 8.5 7t9.5 5q-4 12 -1.5 18t6.5 11t8.5 10.5t8.5 10.5q9 -1 11 6.5t6 11.5q3 3 7.5 5.5t13.5 2.5q-1 7 3.5 12t9.5 8q18 13 34 18.5t29 5.5zM485 612q-1 -4 -3 -10l-4 -12q57 22 98.5 46
t41.5 47q0 5 -5 10.5t-15 5.5q-18 0 -35 -9t-31 -22.5t-26 -28.5t-21 -27zM460 871q2 13 11 17.5t16 4.5q10 0 14.5 -8t4.5 -16t-3.5 -16.5t-7.5 -16.5q-1 -2 -4 -4.5t-12 -2.5q1 -5 -1 -9t-3 -7q-3 -2 -6.5 -3.5t-7.5 -1.5q1 -7 -2 -9.5t-3 -6.5l-12.5 -12.5l-9.5 -9.5
q-3 -2 -5.5 -3t-5.5 -1t-5.5 1.5t-3.5 5.5q2 3 12.5 14.5t19.5 29.5q5 10 9 25.5t5 28.5z" />
    <glyph glyph-name="Icircumflex" unicode="&#xce;" 
d="M598 710q19 0 25 -8.5t6 -18.5q0 -19 -35.5 -46t-119.5 -60q-10 -32 -27.5 -74.5t-42.5 -83.5q-22 -91 -51 -185.5t-63 -170.5t-74 -124.5t-85 -48.5q-37 0 -68 29.5t-31 90.5q0 47 18 85t44 64t54 40t48 14q19 0 29 -10t10 -28q0 -29 -14 -49.5t-31 -29.5q-4 0 -7 1.5
t-5 3.5q0 14 12.5 38t12.5 43q0 7 -2.5 14t-12.5 7q-13 0 -37.5 -13t-48.5 -38t-41.5 -61.5t-17.5 -82.5q0 -29 8.5 -49.5t21.5 -33t28.5 -18t29.5 -5.5q41 0 74 57t60 136.5t50 166t44 144.5q11 31 23 58.5t23 52.5q3 6 7.5 11.5t16.5 7.5q0 7 1.5 14t3.5 12
q-19 -7 -41 -14t-46 -14q-124 -50 -174 -102.5t-50 -88.5q0 -11 7.5 -16t17.5 -5q16 0 37 7t41 18t36 24t21 25q10 19 15 31t12 22q6 3 9.5 1.5t6.5 -5.5q-8 -24 -18.5 -40.5t-21.5 -26.5q-10 -11 -28.5 -23t-38 -21.5t-39 -16t-32.5 -6.5q-22 0 -29 10.5t-7 21.5
q0 29 19 57.5t50 54.5t72 48.5t85 39.5q22 7 46.5 15t48.5 16q3 1 5.5 2t5.5 2q4 4 8.5 7t9.5 5q-4 12 -1.5 18t6.5 11t8.5 10.5t8.5 10.5q9 -1 11 6.5t6 11.5q3 3 7.5 5.5t13.5 2.5q-1 7 3.5 12t9.5 8q18 13 34 18.5t29 5.5zM485 612q-1 -4 -3 -10l-4 -12q57 22 98.5 46
t41.5 47q0 5 -5 10.5t-15 5.5q-18 0 -35 -9t-31 -22.5t-26 -28.5t-21 -27zM547 894v-41q0 -32 6 -44t17 -23l-1.5 -5t-12.5 -5q-24 6 -36 24t-16 33q-13 -34 -42.5 -56t-44.5 -27q-4 -6 -7.5 -7.5t-5.5 -1.5q-6 0 -7 2.5t-1 8.5q20 9 37.5 23t30.5 29t23 29t15 23q1 6 2 11
t4 10q4 7 10.5 12t16.5 6h8t4 -1z" />
    <glyph glyph-name="Idieresis" unicode="&#xcf;" horiz-adv-x="436" 
d="M598 710q19 0 25 -8.5t6 -18.5q0 -19 -35.5 -46t-119.5 -60q-10 -32 -27.5 -74.5t-42.5 -83.5q-22 -91 -51 -185.5t-63 -170.5t-74 -124.5t-85 -48.5q-37 0 -68 29.5t-31 90.5q0 47 18 85t44 64t54 40t48 14q19 0 29 -10t10 -28q0 -29 -14 -49.5t-31 -29.5q-4 0 -7 1.5
t-5 3.5q0 14 12.5 38t12.5 43q0 7 -2.5 14t-12.5 7q-13 0 -37.5 -13t-48.5 -38t-41.5 -61.5t-17.5 -82.5q0 -29 8.5 -49.5t21.5 -33t28.5 -18t29.5 -5.5q41 0 74 57t60 136.5t50 166t44 144.5q11 31 23 58.5t23 52.5q3 6 7.5 11.5t16.5 7.5q0 7 1.5 14t3.5 12
q-19 -7 -41 -14t-46 -14q-124 -50 -174 -102.5t-50 -88.5q0 -11 7.5 -16t17.5 -5q16 0 37 7t41 18t36 24t21 25q10 19 15 31t12 22q6 3 9.5 1.5t6.5 -5.5q-8 -24 -18.5 -40.5t-21.5 -26.5q-10 -11 -28.5 -23t-38 -21.5t-39 -16t-32.5 -6.5q-22 0 -29 10.5t-7 21.5
q0 29 19 57.5t50 54.5t72 48.5t85 39.5q22 7 46.5 15t48.5 16q3 1 5.5 2t5.5 2q4 4 8.5 7t9.5 5q-4 12 -1.5 18t6.5 11t8.5 10.5t8.5 10.5q9 -1 11 6.5t6 11.5q3 3 7.5 5.5t13.5 2.5q-1 7 3.5 12t9.5 8q18 13 34 18.5t29 5.5zM485 612q-1 -4 -3 -10l-4 -12q57 22 98.5 46
t41.5 47q0 5 -5 10.5t-15 5.5q-18 0 -35 -9t-31 -22.5t-26 -28.5t-21 -27zM535 839q0 16 12 35t32 19q5 0 8 -2.5t1 -5.5q-11 0 -15 -9.5t-4 -16.5q0 -8 3 -15.5t10 -11.5q0 -9 -6 -16.5t-17 -7.5q-13 0 -18.5 9t-5.5 22zM480 870q12 0 16 -6.5t4 -14.5q0 -13 -6.5 -20
t-6.5 -20q0 -6 2.5 -10t9.5 -4q5 0 9.5 4t5.5 11q4 1 6.5 1t2.5 -6q-4 -13 -16 -22.5t-25 -9.5t-22.5 11t-9.5 32q0 14 7 32t23 22z" />
    <glyph glyph-name="Ograve" unicode="&#xd2;" 
d="M534 710q3 -1 3 -3t-1 -5q-56 -12 -129.5 -78t-138.5 -161t-110 -208t-45 -217q0 -78 23 -99.5t48 -21.5q36 0 71 21.5t69 57.5q3 4 7.5 4.5t8.5 5.5q1 7 4 10t4 8q3 4 6.5 5t4.5 8q4 6 6.5 9.5t5.5 7.5q4 1 6 2.5t1 5.5q3 6 5.5 9.5t5.5 7.5q2 3 5 5.5t12 2.5
q-4 7 -1.5 10t2.5 9q2 4 5.5 8t9.5 8q2 4 2 7.5t2 7.5q16 25 31.5 51.5t31.5 53.5q20 33 38.5 67t34.5 68q-13 -18 -31 -28.5t-44 -10.5q-39 0 -62 24.5t-23 67.5q0 37 22.5 76.5t56.5 71.5q26 24 41.5 48t28 42.5t25.5 30t34 11.5q28 0 41 -20t13 -45q0 -19 -11 -61.5
t-32.5 -98t-52 -121t-69.5 -128.5q-38 -68 -78 -130.5t-81 -110.5t-85 -76.5t-90 -28.5q-56 0 -85 40.5t-29 106.5q0 111 52.5 226t127.5 210t158.5 160t144.5 77zM471 380q6 -4 8 -10t3 -15q9 8 16 6.5t13 -1.5q20 0 37.5 13.5t30.5 41.5q35 80 54.5 144t19.5 86
q0 24 -11.5 39t-31.5 15q-19 0 -31 -12t-22.5 -30.5t-21.5 -42t-28 -47.5q-20 -28 -30.5 -52t-14.5 -45q-1 -14 -6 -17t-11 -7q-1 -7 4 -13.5t9 -9.5q0 -7 -0.5 -15t-6.5 -15q10 -1 10 -8.5t10 -4.5zM521 897q10 0 16.5 -7t6.5 -21q-2 -10 -4 -18t-2 -16q0 -12 5.5 -29
t12.5 -30q-1 -5 -3 -6.5t-9 -1.5q-13 13 -31 41.5t-18 53.5q0 16 8 25t18 9z" />
    <glyph glyph-name="Oacute" unicode="&#xd3;" 
d="M534 710q3 -1 3 -3t-1 -5q-56 -12 -129.5 -78t-138.5 -161t-110 -208t-45 -217q0 -78 23 -99.5t48 -21.5q36 0 71 21.5t69 57.5q3 4 7.5 4.5t8.5 5.5q1 7 4 10t4 8q3 4 6.5 5t4.5 8q4 6 6.5 9.5t5.5 7.5q4 1 6 2.5t1 5.5q3 6 5.5 9.5t5.5 7.5q2 3 5 5.5t12 2.5
q-4 7 -1.5 10t2.5 9q2 4 5.5 8t9.5 8q2 4 2 7.5t2 7.5q16 25 31.5 51.5t31.5 53.5q20 33 38.5 67t34.5 68q-13 -18 -31 -28.5t-44 -10.5q-39 0 -62 24.5t-23 67.5q0 37 22.5 76.5t56.5 71.5q26 24 41.5 48t28 42.5t25.5 30t34 11.5q28 0 41 -20t13 -45q0 -19 -11 -61.5
t-32.5 -98t-52 -121t-69.5 -128.5q-38 -68 -78 -130.5t-81 -110.5t-85 -76.5t-90 -28.5q-56 0 -85 40.5t-29 106.5q0 111 52.5 226t127.5 210t158.5 160t144.5 77zM471 380q6 -4 8 -10t3 -15q9 8 16 6.5t13 -1.5q20 0 37.5 13.5t30.5 41.5q35 80 54.5 144t19.5 86
q0 24 -11.5 39t-31.5 15q-19 0 -31 -12t-22.5 -30.5t-21.5 -42t-28 -47.5q-20 -28 -30.5 -52t-14.5 -45q-1 -14 -6 -17t-11 -7q-1 -7 4 -13.5t9 -9.5q0 -7 -0.5 -15t-6.5 -15q10 -1 10 -8.5t10 -4.5zM546 871q2 13 11 17.5t16 4.5q10 0 14.5 -8t4.5 -16t-3.5 -16.5
t-7.5 -16.5q-1 -2 -4 -4.5t-12 -2.5q1 -5 -1 -9t-3 -7q-3 -2 -6.5 -3.5t-7.5 -1.5q1 -7 -2 -9.5t-3 -6.5l-12.5 -12.5l-9.5 -9.5q-3 -2 -5.5 -3t-5.5 -1t-5.5 1.5t-3.5 5.5q2 3 12.5 14.5t19.5 29.5q5 10 9 25.5t5 28.5z" />
    <glyph glyph-name="Ocircumflex" unicode="&#xd4;" horiz-adv-x="608" 
d="M534 710q3 -1 3 -3t-1 -5q-56 -12 -129.5 -78t-138.5 -161t-110 -208t-45 -217q0 -78 23 -99.5t48 -21.5q36 0 71 21.5t69 57.5q3 4 7.5 4.5t8.5 5.5q1 7 4 10t4 8q3 4 6.5 5t4.5 8q4 6 6.5 9.5t5.5 7.5q4 1 6 2.5t1 5.5q3 6 5.5 9.5t5.5 7.5q2 3 5 5.5t12 2.5
q-4 7 -1.5 10t2.5 9q2 4 5.5 8t9.5 8q2 4 2 7.5t2 7.5q16 25 31.5 51.5t31.5 53.5q20 33 38.5 67t34.5 68q-13 -18 -31 -28.5t-44 -10.5q-39 0 -62 24.5t-23 67.5q0 37 22.5 76.5t56.5 71.5q26 24 41.5 48t28 42.5t25.5 30t34 11.5q28 0 41 -20t13 -45q0 -19 -11 -61.5
t-32.5 -98t-52 -121t-69.5 -128.5q-38 -68 -78 -130.5t-81 -110.5t-85 -76.5t-90 -28.5q-56 0 -85 40.5t-29 106.5q0 111 52.5 226t127.5 210t158.5 160t144.5 77zM471 380q6 -4 8 -10t3 -15q9 8 16 6.5t13 -1.5q20 0 37.5 13.5t30.5 41.5q35 80 54.5 144t19.5 86
q0 24 -11.5 39t-31.5 15q-19 0 -31 -12t-22.5 -30.5t-21.5 -42t-28 -47.5q-20 -28 -30.5 -52t-14.5 -45q-1 -14 -6 -17t-11 -7q-1 -7 4 -13.5t9 -9.5q0 -7 -0.5 -15t-6.5 -15q10 -1 10 -8.5t10 -4.5zM613 894v-41q0 -32 6 -44t17 -23l-1.5 -5t-12.5 -5q-24 6 -36 24t-16 33
q-13 -34 -42.5 -56t-44.5 -27q-4 -6 -7.5 -7.5t-5.5 -1.5q-6 0 -7 2.5t-1 8.5q20 9 37.5 23t30.5 29t23 29t15 23q1 6 2 11t4 10q4 7 10.5 12t16.5 6h8t4 -1z" />
    <glyph glyph-name="Odieresis" unicode="&#xd6;" horiz-adv-x="608" 
d="M534 710q3 -1 3 -3t-1 -5q-56 -12 -129.5 -78t-138.5 -161t-110 -208t-45 -217q0 -78 23 -99.5t48 -21.5q36 0 71 21.5t69 57.5q3 4 7.5 4.5t8.5 5.5q1 7 4 10t4 8q3 4 6.5 5t4.5 8q4 6 6.5 9.5t5.5 7.5q4 1 6 2.5t1 5.5q3 6 5.5 9.5t5.5 7.5q2 3 5 5.5t12 2.5
q-4 7 -1.5 10t2.5 9q2 4 5.5 8t9.5 8q2 4 2 7.5t2 7.5q16 25 31.5 51.5t31.5 53.5q20 33 38.5 67t34.5 68q-13 -18 -31 -28.5t-44 -10.5q-39 0 -62 24.5t-23 67.5q0 37 22.5 76.5t56.5 71.5q26 24 41.5 48t28 42.5t25.5 30t34 11.5q28 0 41 -20t13 -45q0 -19 -11 -61.5
t-32.5 -98t-52 -121t-69.5 -128.5q-38 -68 -78 -130.5t-81 -110.5t-85 -76.5t-90 -28.5q-56 0 -85 40.5t-29 106.5q0 111 52.5 226t127.5 210t158.5 160t144.5 77zM471 380q6 -4 8 -10t3 -15q9 8 16 6.5t13 -1.5q20 0 37.5 13.5t30.5 41.5q35 80 54.5 144t19.5 86
q0 24 -11.5 39t-31.5 15q-19 0 -31 -12t-22.5 -30.5t-21.5 -42t-28 -47.5q-20 -28 -30.5 -52t-14.5 -45q-1 -14 -6 -17t-11 -7q-1 -7 4 -13.5t9 -9.5q0 -7 -0.5 -15t-6.5 -15q10 -1 10 -8.5t10 -4.5zM611 839q0 16 12 35t32 19q5 0 8 -2.5t1 -5.5q-11 0 -15 -9.5t-4 -16.5
q0 -8 3 -15.5t10 -11.5q0 -9 -6 -16.5t-17 -7.5q-13 0 -18.5 9t-5.5 22zM556 870q12 0 16 -6.5t4 -14.5q0 -13 -6.5 -20t-6.5 -20q0 -6 2.5 -10t9.5 -4q5 0 9.5 4t5.5 11q4 1 6.5 1t2.5 -6q-4 -13 -16 -22.5t-25 -9.5t-22.5 11t-9.5 32q0 14 7 32t23 22z" />
    <glyph glyph-name="Ugrave" unicode="&#xd9;" horiz-adv-x="550" 
d="M122 377q22 41 55.5 85.5t73.5 85.5t84.5 75t88.5 55q6 0 7.5 -3t1.5 -7q-25 -43 -70.5 -114.5t-97 -162.5t-102 -199.5t-86.5 -224.5q32 35 61 87t58.5 106.5t62 104.5t72.5 82q20 47 54 101.5t72 105t75 92.5t63 64q4 0 8 -0.5t6 -4.5q0 -1 -2.5 -3t-2.5 -4
q5 -2 4.5 -4.5t-2.5 -5.5l-5 -5t-10 -5q3 -4 1.5 -6.5t-2.5 -4.5q-1 -1 -4 -3t-15 -3q1 -7 2.5 -11.5t-2.5 -9.5q-39 -49 -87.5 -126t-94.5 -161q-2 -4 -7.5 -3.5t-0.5 -11.5l-12 -21q-4 -6 -8.5 -12t-17.5 -7q-7 -6 -3 -17t0 -18t-9.5 -14.5t-18.5 -12.5q7 -7 6 -13t-3 -11
q-34 -72 -56 -133t-22 -101q0 -43 20 -60t39 -17t41.5 16t44.5 42q-4 -1 -9.5 -2t-9.5 -1q-26 0 -44 20t-18 63q0 30 13 68.5t33 71.5t46 56t51 23q12 0 19.5 -8t12 -19.5t6 -24t1.5 -22.5q0 -43 -17.5 -94.5t-44.5 -96t-60 -74t-65 -29.5q-28 0 -49 21.5t-21 65.5
q0 68 20 155t78 195q-32 -30 -60.5 -75.5t-55.5 -94.5t-54 -97t-55 -83q-17 -22 -22.5 -33.5t-10.5 -30.5q-2 -9 -4 -15.5t-3 -10.5q-10 -1 -17 0t-12 6q-1 4 -2 11.5t-1 14.5q0 27 11 68t29 88t40.5 97t46.5 95q54 103 125.5 206.5t140.5 190.5q-46 -22 -91 -58.5
t-83.5 -77.5t-68.5 -82.5t-46 -73.5q-4 -1 -6 0t-3 5zM343 39q0 -8 1 -20.5t4.5 -24t10.5 -19.5t19 -8q4 0 8 1.5t7 4.5q32 43 55.5 100t23.5 111q0 25 -6.5 44t-21.5 19t-32.5 -20.5t-33 -51t-25.5 -67.5t-10 -69zM492 897q10 0 16.5 -7t6.5 -21q-2 -10 -4 -18t-2 -16
q0 -12 5.5 -29t12.5 -30q-1 -5 -3 -6.5t-9 -1.5q-13 13 -31 41.5t-18 53.5q0 16 8 25t18 9z" />
    <glyph glyph-name="Uacute" unicode="&#xda;" 
d="M122 377q22 41 55.5 85.5t73.5 85.5t84.5 75t88.5 55q6 0 7.5 -3t1.5 -7q-25 -43 -70.5 -114.5t-97 -162.5t-102 -199.5t-86.5 -224.5q32 35 61 87t58.5 106.5t62 104.5t72.5 82q20 47 54 101.5t72 105t75 92.5t63 64q4 0 8 -0.5t6 -4.5q0 -1 -2.5 -3t-2.5 -4
q5 -2 4.5 -4.5t-2.5 -5.5l-5 -5t-10 -5q3 -4 1.5 -6.5t-2.5 -4.5q-1 -1 -4 -3t-15 -3q1 -7 2.5 -11.5t-2.5 -9.5q-39 -49 -87.5 -126t-94.5 -161q-2 -4 -7.5 -3.5t-0.5 -11.5l-12 -21q-4 -6 -8.5 -12t-17.5 -7q-7 -6 -3 -17t0 -18t-9.5 -14.5t-18.5 -12.5q7 -7 6 -13t-3 -11
q-34 -72 -56 -133t-22 -101q0 -43 20 -60t39 -17t41.5 16t44.5 42q-4 -1 -9.5 -2t-9.5 -1q-26 0 -44 20t-18 63q0 30 13 68.5t33 71.5t46 56t51 23q12 0 19.5 -8t12 -19.5t6 -24t1.5 -22.5q0 -43 -17.5 -94.5t-44.5 -96t-60 -74t-65 -29.5q-28 0 -49 21.5t-21 65.5
q0 68 20 155t78 195q-32 -30 -60.5 -75.5t-55.5 -94.5t-54 -97t-55 -83q-17 -22 -22.5 -33.5t-10.5 -30.5q-2 -9 -4 -15.5t-3 -10.5q-10 -1 -17 0t-12 6q-1 4 -2 11.5t-1 14.5q0 27 11 68t29 88t40.5 97t46.5 95q54 103 125.5 206.5t140.5 190.5q-46 -22 -91 -58.5
t-83.5 -77.5t-68.5 -82.5t-46 -73.5q-4 -1 -6 0t-3 5zM343 39q0 -8 1 -20.5t4.5 -24t10.5 -19.5t19 -8q4 0 8 1.5t7 4.5q32 43 55.5 100t23.5 111q0 25 -6.5 44t-21.5 19t-32.5 -20.5t-33 -51t-25.5 -67.5t-10 -69zM517 871q2 13 11 17.5t16 4.5q10 0 14.5 -8t4.5 -16
t-3.5 -16.5t-7.5 -16.5q-1 -2 -4 -4.5t-12 -2.5q1 -5 -1 -9t-3 -7q-3 -2 -6.5 -3.5t-7.5 -1.5q1 -7 -2 -9.5t-3 -6.5l-12.5 -12.5l-9.5 -9.5q-3 -2 -5.5 -3t-5.5 -1t-5.5 1.5t-3.5 5.5q2 3 12.5 14.5t19.5 29.5q5 10 9 25.5t5 28.5z" />
    <glyph glyph-name="Ucircumflex" unicode="&#xdb;" horiz-adv-x="550" 
d="M122 377q22 41 55.5 85.5t73.5 85.5t84.5 75t88.5 55q6 0 7.5 -3t1.5 -7q-25 -43 -70.5 -114.5t-97 -162.5t-102 -199.5t-86.5 -224.5q32 35 61 87t58.5 106.5t62 104.5t72.5 82q20 47 54 101.5t72 105t75 92.5t63 64q4 0 8 -0.5t6 -4.5q0 -1 -2.5 -3t-2.5 -4
q5 -2 4.5 -4.5t-2.5 -5.5l-5 -5t-10 -5q3 -4 1.5 -6.5t-2.5 -4.5q-1 -1 -4 -3t-15 -3q1 -7 2.5 -11.5t-2.5 -9.5q-39 -49 -87.5 -126t-94.5 -161q-2 -4 -7.5 -3.5t-0.5 -11.5l-12 -21q-4 -6 -8.5 -12t-17.5 -7q-7 -6 -3 -17t0 -18t-9.5 -14.5t-18.5 -12.5q7 -7 6 -13t-3 -11
q-34 -72 -56 -133t-22 -101q0 -43 20 -60t39 -17t41.5 16t44.5 42q-4 -1 -9.5 -2t-9.5 -1q-26 0 -44 20t-18 63q0 30 13 68.5t33 71.5t46 56t51 23q12 0 19.5 -8t12 -19.5t6 -24t1.5 -22.5q0 -43 -17.5 -94.5t-44.5 -96t-60 -74t-65 -29.5q-28 0 -49 21.5t-21 65.5
q0 68 20 155t78 195q-32 -30 -60.5 -75.5t-55.5 -94.5t-54 -97t-55 -83q-17 -22 -22.5 -33.5t-10.5 -30.5q-2 -9 -4 -15.5t-3 -10.5q-10 -1 -17 0t-12 6q-1 4 -2 11.5t-1 14.5q0 27 11 68t29 88t40.5 97t46.5 95q54 103 125.5 206.5t140.5 190.5q-46 -22 -91 -58.5
t-83.5 -77.5t-68.5 -82.5t-46 -73.5q-4 -1 -6 0t-3 5zM343 39q0 -8 1 -20.5t4.5 -24t10.5 -19.5t19 -8q4 0 8 1.5t7 4.5q32 43 55.5 100t23.5 111q0 25 -6.5 44t-21.5 19t-32.5 -20.5t-33 -51t-25.5 -67.5t-10 -69zM599 894v-41q0 -32 6 -44t17 -23l-1.5 -5t-12.5 -5
q-24 6 -36 24t-16 33q-13 -34 -42.5 -56t-44.5 -27q-4 -6 -7.5 -7.5t-5.5 -1.5q-6 0 -7 2.5t-1 8.5q20 9 37.5 23t30.5 29t23 29t15 23q1 6 2 11t4 10q4 7 10.5 12t16.5 6h8t4 -1z" />
    <glyph glyph-name="Udieresis" unicode="&#xdc;" horiz-adv-x="550" 
d="M122 377q22 41 55.5 85.5t73.5 85.5t84.5 75t88.5 55q6 0 7.5 -3t1.5 -7q-25 -43 -70.5 -114.5t-97 -162.5t-102 -199.5t-86.5 -224.5q32 35 61 87t58.5 106.5t62 104.5t72.5 82q20 47 54 101.5t72 105t75 92.5t63 64q4 0 8 -0.5t6 -4.5q0 -1 -2.5 -3t-2.5 -4
q5 -2 4.5 -4.5t-2.5 -5.5l-5 -5t-10 -5q3 -4 1.5 -6.5t-2.5 -4.5q-1 -1 -4 -3t-15 -3q1 -7 2.5 -11.5t-2.5 -9.5q-39 -49 -87.5 -126t-94.5 -161q-2 -4 -7.5 -3.5t-0.5 -11.5l-12 -21q-4 -6 -8.5 -12t-17.5 -7q-7 -6 -3 -17t0 -18t-9.5 -14.5t-18.5 -12.5q7 -7 6 -13t-3 -11
q-34 -72 -56 -133t-22 -101q0 -43 20 -60t39 -17t41.5 16t44.5 42q-4 -1 -9.5 -2t-9.5 -1q-26 0 -44 20t-18 63q0 30 13 68.5t33 71.5t46 56t51 23q12 0 19.5 -8t12 -19.5t6 -24t1.5 -22.5q0 -43 -17.5 -94.5t-44.5 -96t-60 -74t-65 -29.5q-28 0 -49 21.5t-21 65.5
q0 68 20 155t78 195q-32 -30 -60.5 -75.5t-55.5 -94.5t-54 -97t-55 -83q-17 -22 -22.5 -33.5t-10.5 -30.5q-2 -9 -4 -15.5t-3 -10.5q-10 -1 -17 0t-12 6q-1 4 -2 11.5t-1 14.5q0 27 11 68t29 88t40.5 97t46.5 95q54 103 125.5 206.5t140.5 190.5q-46 -22 -91 -58.5
t-83.5 -77.5t-68.5 -82.5t-46 -73.5q-4 -1 -6 0t-3 5zM343 39q0 -8 1 -20.5t4.5 -24t10.5 -19.5t19 -8q4 0 8 1.5t7 4.5q32 43 55.5 100t23.5 111q0 25 -6.5 44t-21.5 19t-32.5 -20.5t-33 -51t-25.5 -67.5t-10 -69zM557 839q0 16 12 35t32 19q5 0 8 -2.5t1 -5.5
q-11 0 -15 -9.5t-4 -16.5q0 -8 3 -15.5t10 -11.5q0 -9 -6 -16.5t-17 -7.5q-13 0 -18.5 9t-5.5 22zM502 870q12 0 16 -6.5t4 -14.5q0 -13 -6.5 -20t-6.5 -20q0 -6 2.5 -10t9.5 -4q5 0 9.5 4t5.5 11q4 1 6.5 1t2.5 -6q-4 -13 -16 -22.5t-25 -9.5t-22.5 11t-9.5 32q0 14 7 32
t23 22z" />
    <glyph glyph-name="Yacute" unicode="&#xdd;" 
d="M323 672q13 0 26 -10t13 -29q0 -46 -22 -114.5t-50 -141t-54.5 -141t-36.5 -113.5q20 28 42.5 66.5t46.5 80.5t48.5 83.5t47.5 73.5q12 30 29.5 78t37 93.5t40 78.5t39.5 33q7 0 10 -6.5t3 -13.5q0 -32 -20 -57.5t-39 -44.5q-20 -51 -40.5 -114.5t-41 -130.5
t-40.5 -136.5t-39 -134.5q31 28 60 53t54 44q4 -1 5 -2.5t1 -5.5q-28 -22 -60 -49.5t-66 -58.5q-10 -31 -19 -61t-18 -57q-23 -71 -67 -161t-96.5 -169t-107.5 -133.5t-101 -54.5q-19 0 -35 13t-16 44q0 41 36.5 105t94 137.5t130 152t143.5 146.5q2 10 4.5 19.5t3.5 19.5
q8 43 21.5 92.5t28.5 95t29 83.5t22 59q-21 -31 -44.5 -72t-46.5 -80.5t-43.5 -72.5t-35.5 -48q-7 -8 -15 -14.5t-14 -9.5q-7 0 -16 4.5t-13 17.5q4 37 35 104.5t66 141.5t63.5 145t28.5 115q1 18 -6.5 31.5t-17.5 13.5q-28 -14 -58.5 -48t-55.5 -72.5t-41.5 -74
t-16.5 -51.5q0 -4 1.5 -7.5t3.5 -4.5q1 -4 -1.5 -6t-5.5 -2q-4 4 -6.5 8.5t-2.5 11.5q0 21 22 64t52.5 86t64 75.5t56.5 32.5zM487 607q24 24 34 47t11 36q0 3 -0.5 5.5t-1.5 3.5q-6 -1 -11.5 -11t-11 -24t-10.5 -29.5t-10 -27.5zM-132 -526q0 -18 9 -32t31 -14t52 20t64 57
t70 91.5t68 122.5q4 9 11 23t16 9q-6 7 0.5 16.5t-0.5 21.5q7 12 16.5 29t15.5 16q-5 10 -5 15.5t4 15.5t8 22t13 13q-7 7 -3.5 21t6.5 24q4 13 7 26l6 26q-71 -68 -140.5 -144.5t-124.5 -147.5t-89.5 -132t-34.5 -99zM500 871q2 13 11 17.5t16 4.5q10 0 14.5 -8t4.5 -16
t-3.5 -16.5t-7.5 -16.5q-1 -2 -4 -4.5t-12 -2.5q1 -5 -1 -9t-3 -7q-3 -2 -6.5 -3.5t-7.5 -1.5q1 -7 -2 -9.5t-3 -6.5l-12.5 -12.5l-9.5 -9.5q-3 -2 -5.5 -3t-5.5 -1t-5.5 1.5t-3.5 5.5q2 3 12.5 14.5t19.5 29.5q5 10 9 25.5t5 28.5z" />
    <glyph glyph-name="agrave" unicode="&#xe0;" horiz-adv-x="287" 
d="M257 69q-13 -21 -33 -43t-48 -22q-19 0 -33 12t-14 34q0 12 -3.5 16.5t-13.5 -5.5q-7 -6 -17 -16t-21.5 -19t-22.5 -15.5t-19 -6.5q-18 0 -27 16.5t-9 40.5q0 33 14 67.5t36 63t48 46.5t50 18q20 0 28 -10t8 -24v-2q4 11 7.5 19.5t7.5 12.5q4 2 7 3t7 1t9.5 -1t9.5 -4
q-2 -19 -7.5 -37t-12.5 -35q-10 -5 -9 -8.5t2 -7.5q-3 -5 -7 -11t-14 -12q6 -4 5 -9.5t-3 -9.5q-6 -13 -9.5 -26t-3.5 -24q0 -16 8.5 -23.5t21.5 -7.5q10 0 23.5 8t26.5 27q3 0 5 -1.5t3 -4.5zM38 104q7 -4 8.5 -10.5t-2.5 -16.5q0 -18 3.5 -27t14.5 -9q13 0 40.5 25
t50.5 66q5 18 10.5 35.5t9.5 33.5q-7 -10 -17.5 -17t-19.5 -11q-3 2 -4 5t-1 5q12 4 23.5 14.5t11.5 24.5q0 8 -5 15.5t-17 7.5q-14 0 -29.5 -11t-29.5 -29q-3 -4 -7.5 -9.5t-11.5 -11.5q-5 -14 -2 -25t-3 -20q-5 -10 -10.5 -17t-12.5 -18zM176 477q10 0 16.5 -7t6.5 -21
q-2 -10 -4 -18t-2 -16q0 -12 5.5 -29t12.5 -30q-1 -5 -3 -6.5t-9 -1.5q-13 13 -31 41.5t-18 53.5q0 16 8 25t18 9z" />
    <glyph glyph-name="aacute" unicode="&#xe1;" 
d="M257 69q-13 -21 -33 -43t-48 -22q-19 0 -33 12t-14 34q0 12 -3.5 16.5t-13.5 -5.5q-7 -6 -17 -16t-21.5 -19t-22.5 -15.5t-19 -6.5q-18 0 -27 16.5t-9 40.5q0 33 14 67.5t36 63t48 46.5t50 18q20 0 28 -10t8 -24v-2q4 11 7.5 19.5t7.5 12.5q4 2 7 3t7 1t9.5 -1t9.5 -4
q-2 -19 -7.5 -37t-12.5 -35q-10 -5 -9 -8.5t2 -7.5q-3 -5 -7 -11t-14 -12q6 -4 5 -9.5t-3 -9.5q-6 -13 -9.5 -26t-3.5 -24q0 -16 8.5 -23.5t21.5 -7.5q10 0 23.5 8t26.5 27q3 0 5 -1.5t3 -4.5zM38 104q7 -4 8.5 -10.5t-2.5 -16.5q0 -18 3.5 -27t14.5 -9q13 0 40.5 25
t50.5 66q5 18 10.5 35.5t9.5 33.5q-7 -10 -17.5 -17t-19.5 -11q-3 2 -4 5t-1 5q12 4 23.5 14.5t11.5 24.5q0 8 -5 15.5t-17 7.5q-14 0 -29.5 -11t-29.5 -29q-3 -4 -7.5 -9.5t-11.5 -11.5q-5 -14 -2 -25t-3 -20q-5 -10 -10.5 -17t-12.5 -18zM236 451q2 13 11 17.5t16 4.5
q10 0 14.5 -8t4.5 -16t-3.5 -16.5t-7.5 -16.5q-1 -2 -4 -4.5t-12 -2.5q1 -5 -1 -9t-3 -7q-3 -2 -6.5 -3.5t-7.5 -1.5q1 -7 -2 -9.5t-3 -6.5l-12.5 -12.5l-9.5 -9.5q-3 -2 -5.5 -3t-5.5 -1t-5.5 1.5t-3.5 5.5q2 3 12.5 14.5t19.5 29.5q5 10 9 25.5t5 28.5z" />
    <glyph glyph-name="acircumflex" unicode="&#xe2;" horiz-adv-x="287" 
d="M257 69q-13 -21 -33 -43t-48 -22q-19 0 -33 12t-14 34q0 12 -3.5 16.5t-13.5 -5.5q-7 -6 -17 -16t-21.5 -19t-22.5 -15.5t-19 -6.5q-18 0 -27 16.5t-9 40.5q0 33 14 67.5t36 63t48 46.5t50 18q20 0 28 -10t8 -24v-2q4 11 7.5 19.5t7.5 12.5q4 2 7 3t7 1t9.5 -1t9.5 -4
q-2 -19 -7.5 -37t-12.5 -35q-10 -5 -9 -8.5t2 -7.5q-3 -5 -7 -11t-14 -12q6 -4 5 -9.5t-3 -9.5q-6 -13 -9.5 -26t-3.5 -24q0 -16 8.5 -23.5t21.5 -7.5q10 0 23.5 8t26.5 27q3 0 5 -1.5t3 -4.5zM38 104q7 -4 8.5 -10.5t-2.5 -16.5q0 -18 3.5 -27t14.5 -9q13 0 40.5 25
t50.5 66q5 18 10.5 35.5t9.5 33.5q-7 -10 -17.5 -17t-19.5 -11q-3 2 -4 5t-1 5q12 4 23.5 14.5t11.5 24.5q0 8 -5 15.5t-17 7.5q-14 0 -29.5 -11t-29.5 -29q-3 -4 -7.5 -9.5t-11.5 -11.5q-5 -14 -2 -25t-3 -20q-5 -10 -10.5 -17t-12.5 -18zM253 474v-41q0 -32 6 -44t17 -23
l-1.5 -5t-12.5 -5q-24 6 -36 24t-16 33q-13 -34 -42.5 -56t-44.5 -27q-4 -6 -7.5 -7.5t-5.5 -1.5q-6 0 -7 2.5t-1 8.5q20 9 37.5 23t30.5 29t23 29t15 23q1 6 2 11t4 10q4 7 10.5 12t16.5 6h8t4 -1z" />
    <glyph glyph-name="adieresis" unicode="&#xe4;" horiz-adv-x="287" 
d="M257 69q-13 -21 -33 -43t-48 -22q-19 0 -33 12t-14 34q0 12 -3.5 16.5t-13.5 -5.5q-7 -6 -17 -16t-21.5 -19t-22.5 -15.5t-19 -6.5q-18 0 -27 16.5t-9 40.5q0 33 14 67.5t36 63t48 46.5t50 18q20 0 28 -10t8 -24v-2q4 11 7.5 19.5t7.5 12.5q4 2 7 3t7 1t9.5 -1t9.5 -4
q-2 -19 -7.5 -37t-12.5 -35q-10 -5 -9 -8.5t2 -7.5q-3 -5 -7 -11t-14 -12q6 -4 5 -9.5t-3 -9.5q-6 -13 -9.5 -26t-3.5 -24q0 -16 8.5 -23.5t21.5 -7.5q10 0 23.5 8t26.5 27q3 0 5 -1.5t3 -4.5zM38 104q7 -4 8.5 -10.5t-2.5 -16.5q0 -18 3.5 -27t14.5 -9q13 0 40.5 25
t50.5 66q5 18 10.5 35.5t9.5 33.5q-7 -10 -17.5 -17t-19.5 -11q-3 2 -4 5t-1 5q12 4 23.5 14.5t11.5 24.5q0 8 -5 15.5t-17 7.5q-14 0 -29.5 -11t-29.5 -29q-3 -4 -7.5 -9.5t-11.5 -11.5q-5 -14 -2 -25t-3 -20q-5 -10 -10.5 -17t-12.5 -18zM211 419q0 16 12 35t32 19
q5 0 8 -2.5t1 -5.5q-11 0 -15 -9.5t-4 -16.5q0 -8 3 -15.5t10 -11.5q0 -9 -6 -16.5t-17 -7.5q-13 0 -18.5 9t-5.5 22zM156 450q12 0 16 -6.5t4 -14.5q0 -13 -6.5 -20t-6.5 -20q0 -6 2.5 -10t9.5 -4q5 0 9.5 4t5.5 11q4 1 6.5 1t2.5 -6q-4 -13 -16 -22.5t-25 -9.5t-22.5 11
t-9.5 32q0 14 7 32t23 22z" />
    <glyph glyph-name="ae" unicode="&#xe6;" horiz-adv-x="352" 
d="M281 265q16 0 24 -8.5t8 -22.5q0 -12 -8.5 -28.5t-24.5 -33.5t-39 -32.5t-51 -24.5q-1 -7 -1.5 -13.5t-0.5 -13.5q0 -28 11 -45.5t39 -17.5t48.5 17t32.5 33q4 0 5.5 -1t2.5 -4q-21 -36 -48.5 -56.5t-60.5 -20.5q-31 0 -50.5 22t-19.5 63v10t1 10q-22 -38 -57.5 -71.5
t-59.5 -33.5q-18 0 -27 16.5t-9 40.5q0 33 14 69.5t36 66.5t48 50t50 20q20 0 28 -10t8 -24v-2q4 11 7.5 19.5t7.5 12.5q4 2 7 3t7 1t9.5 -1t9.5 -4q-1 -4 -2 -8.5t-2 -8.5q16 18 31 24.5t26 6.5zM281 254q-27 0 -51.5 -31.5t-34.5 -77.5q16 2 35 11t35 21.5t26.5 27.5
t10.5 29q0 10 -5.5 15t-15.5 5zM41 112q5 -10 5 -23.5t-4 -26.5q1 -15 5 -23.5t15 -8.5q13 0 40.5 28.5t50.5 68.5q5 20 10.5 39.5t10.5 35.5q-7 -10 -18 -17.5t-20 -11.5q-3 2 -4 5t-1 5q12 4 23.5 14.5t11.5 24.5q0 8 -5 15.5t-17 7.5q-14 0 -29.5 -11t-29.5 -29
q-6 -9 -10.5 -25t-20.5 -26q3 -16 -1 -25.5t-12 -16.5z" />
    <glyph glyph-name="ccedilla" unicode="&#xe7;" horiz-adv-x="200" 
d="M97 164q-4 0 -9 1t-9 3q0 3 1 6t3 4q4 -1 7.5 -2t6.5 -1q19 0 35 10t16 29q0 7 -4 13t-17 6q-17 0 -35 -13.5t-32 -34.5t-23 -48.5t-9 -55.5q0 -43 17 -58t36 -15q22 0 41.5 16t34.5 38q4 1 6 0t3 -5q-13 -24 -43 -48.5t-67 -24.5q-6 0 -13 1.5t-12 2.5q-13 5 -15.5 9
t-3.5 13q-10 0 -14 3.5t-7 9.5q-1 4 -1.5 9t5.5 15q-1 5 -4 9t-7 6q0 34 14 67t35 58.5t46 41t48 15.5q16 0 24 -8.5t8 -21.5t-6 -23t-14 -14q-4 2 -7.5 1t-4.5 -8q-4 -4 -10 -3t-11 4q-2 -5 -4 -6t-5 -1zM33 -4h12q0 -7 -7.5 -18t-16.5 -21q5 3 14 6t22 3q26 0 36 -15.5
t10 -28.5q0 -27 -19 -41.5t-44 -14.5q-20 0 -33 7.5t-19 16.5l2 4t5 2q4 -4 12 -9.5t21 -5.5q16 0 28 9t12 29q0 16 -10 24.5t-23 8.5q-6 0 -10.5 -1.5t-8.5 -3.5l-2.5 2.5t-3.5 6.5q7 7 13.5 18t9.5 22z" />
    <glyph glyph-name="egrave" unicode="&#xe8;" horiz-adv-x="215" 
d="M129 265q16 0 24 -8.5t8 -22.5q0 -12 -8.5 -28.5t-24.5 -33.5t-39 -32.5t-51 -24.5q-1 -7 -1.5 -13.5t-0.5 -13.5q0 -34 16 -50t41 -16q11 0 23 4t20 8q4 2 7 1t8 0q1 5 3 6.5t4 4.5h8q1 6 4 6.5t3 4.5l13 13q4 0 5.5 -1.5t1.5 -5.5q-28 -33 -60 -53t-63 -20
q-34 0 -55.5 18t-21.5 64q0 39 13.5 74.5t34 61.5t44.5 41.5t44 15.5zM70 208q-9 -14 -16 -30.5t-11 -32.5q16 3 35 12t35 21.5t26.5 27t10.5 28.5q0 10 -5.5 15t-15.5 5q-7 0 -13.5 -2t-11.5 -6q-2 -1 -4.5 -2.5t-6.5 -2.5q-1 -5 -3 -8t-4 -4q-2 -2 -5.5 -3.5t-10.5 -0.5
q4 -7 2.5 -10.5t-2.5 -6.5zM135 477q10 0 16.5 -7t6.5 -21q-2 -10 -4 -18t-2 -16q0 -12 5.5 -29t12.5 -30q-1 -5 -3 -6.5t-9 -1.5q-13 13 -31 41.5t-18 53.5q0 16 8 25t18 9z" />
    <glyph glyph-name="eacute" unicode="&#xe9;" horiz-adv-x="215" 
d="M129 265q16 0 24 -8.5t8 -22.5q0 -12 -8.5 -28.5t-24.5 -33.5t-39 -32.5t-51 -24.5q-1 -7 -1.5 -13.5t-0.5 -13.5q0 -34 16 -50t41 -16q11 0 23 4t20 8q4 2 7 1t8 0q1 5 3 6.5t4 4.5h8q1 6 4 6.5t3 4.5l13 13q4 0 5.5 -1.5t1.5 -5.5q-28 -33 -60 -53t-63 -20
q-34 0 -55.5 18t-21.5 64q0 39 13.5 74.5t34 61.5t44.5 41.5t44 15.5zM70 208q-9 -14 -16 -30.5t-11 -32.5q16 3 35 12t35 21.5t26.5 27t10.5 28.5q0 10 -5.5 15t-15.5 5q-7 0 -13.5 -2t-11.5 -6q-2 -1 -4.5 -2.5t-6.5 -2.5q-1 -5 -3 -8t-4 -4q-2 -2 -5.5 -3.5t-10.5 -0.5
q4 -7 2.5 -10.5t-2.5 -6.5zM165 451q2 13 11 17.5t16 4.5q10 0 14.5 -8t4.5 -16t-3.5 -16.5t-7.5 -16.5q-1 -2 -4 -4.5t-12 -2.5q1 -5 -1 -9t-3 -7q-3 -2 -6.5 -3.5t-7.5 -1.5q1 -7 -2 -9.5t-3 -6.5l-12.5 -12.5l-9.5 -9.5q-3 -2 -5.5 -3t-5.5 -1t-5.5 1.5t-3.5 5.5
q2 3 12.5 14.5t19.5 29.5q5 10 9 25.5t5 28.5z" />
    <glyph glyph-name="ecircumflex" unicode="&#xea;" horiz-adv-x="215" 
d="M129 265q16 0 24 -8.5t8 -22.5q0 -12 -8.5 -28.5t-24.5 -33.5t-39 -32.5t-51 -24.5q-1 -7 -1.5 -13.5t-0.5 -13.5q0 -34 16 -50t41 -16q11 0 23 4t20 8q4 2 7 1t8 0q1 5 3 6.5t4 4.5h8q1 6 4 6.5t3 4.5l13 13q4 0 5.5 -1.5t1.5 -5.5q-28 -33 -60 -53t-63 -20
q-34 0 -55.5 18t-21.5 64q0 39 13.5 74.5t34 61.5t44.5 41.5t44 15.5zM70 208q-9 -14 -16 -30.5t-11 -32.5q16 3 35 12t35 21.5t26.5 27t10.5 28.5q0 10 -5.5 15t-15.5 5q-7 0 -13.5 -2t-11.5 -6q-2 -1 -4.5 -2.5t-6.5 -2.5q-1 -5 -3 -8t-4 -4q-2 -2 -5.5 -3.5t-10.5 -0.5
q4 -7 2.5 -10.5t-2.5 -6.5zM202 474v-41q0 -32 6 -44t17 -23l-1.5 -5t-12.5 -5q-24 6 -36 24t-16 33q-13 -34 -42.5 -56t-44.5 -27q-4 -6 -7.5 -7.5t-5.5 -1.5q-6 0 -7 2.5t-1 8.5q20 9 37.5 23t30.5 29t23 29t15 23q1 6 2 11t4 10q4 7 10.5 12t16.5 6h8t4 -1z" />
    <glyph glyph-name="edieresis" unicode="&#xeb;" horiz-adv-x="215" 
d="M129 265q16 0 24 -8.5t8 -22.5q0 -12 -8.5 -28.5t-24.5 -33.5t-39 -32.5t-51 -24.5q-1 -7 -1.5 -13.5t-0.5 -13.5q0 -34 16 -50t41 -16q11 0 23 4t20 8q4 2 7 1t8 0q1 5 3 6.5t4 4.5h8q1 6 4 6.5t3 4.5l13 13q4 0 5.5 -1.5t1.5 -5.5q-28 -33 -60 -53t-63 -20
q-34 0 -55.5 18t-21.5 64q0 39 13.5 74.5t34 61.5t44.5 41.5t44 15.5zM70 208q-9 -14 -16 -30.5t-11 -32.5q16 3 35 12t35 21.5t26.5 27t10.5 28.5q0 10 -5.5 15t-15.5 5q-7 0 -13.5 -2t-11.5 -6q-2 -1 -4.5 -2.5t-6.5 -2.5q-1 -5 -3 -8t-4 -4q-2 -2 -5.5 -3.5t-10.5 -0.5
q4 -7 2.5 -10.5t-2.5 -6.5zM180 419q0 16 12 35t32 19q5 0 8 -2.5t1 -5.5q-11 0 -15 -9.5t-4 -16.5q0 -8 3 -15.5t10 -11.5q0 -9 -6 -16.5t-17 -7.5q-13 0 -18.5 9t-5.5 22zM125 450q12 0 16 -6.5t4 -14.5q0 -13 -6.5 -20t-6.5 -20q0 -6 2.5 -10t9.5 -4q5 0 9.5 4t5.5 11
q4 1 6.5 1t2.5 -6q-4 -13 -16 -22.5t-25 -9.5t-22.5 11t-9.5 32q0 14 7 32t23 22z" />
    <glyph glyph-name="igrave" unicode="&#xec;" 
d="M69 233q12 0 20 -6.5t9 -15.5q-5 -8 -9.5 -12t-17.5 -4q1 -7 1 -15.5t-3 -13.5q-4 -8 -8.5 -8t-10.5 -5q4 -10 2 -20t-5 -20q-5 -17 -7.5 -33.5t-3.5 -29.5q1 -13 5 -21t16 -8q10 0 20.5 10.5t17.5 20.5q4 0 5.5 -1t2.5 -5q-22 -31 -42.5 -43.5t-33.5 -12.5
q-16 0 -28.5 11t-12.5 33q0 23 8 51.5t20.5 55.5t27 51.5t27.5 40.5zM137 477q10 0 16.5 -7t6.5 -21q-2 -10 -4 -18t-2 -16q0 -12 5.5 -29t12.5 -30q-1 -5 -3 -6.5t-9 -1.5q-13 13 -31 41.5t-18 53.5q0 16 8 25t18 9z" />
    <glyph glyph-name="iacute" unicode="&#xed;" 
d="M69 233q12 0 20 -6.5t9 -15.5q-5 -8 -9.5 -12t-17.5 -4q1 -7 1 -15.5t-3 -13.5q-4 -8 -8.5 -8t-10.5 -5q4 -10 2 -20t-5 -20q-5 -17 -7.5 -33.5t-3.5 -29.5q1 -13 5 -21t16 -8q10 0 20.5 10.5t17.5 20.5q4 0 5.5 -1t2.5 -5q-22 -31 -42.5 -43.5t-33.5 -12.5
q-16 0 -28.5 11t-12.5 33q0 23 8 51.5t20.5 55.5t27 51.5t27.5 40.5zM162 451q2 13 11 17.5t16 4.5q10 0 14.5 -8t4.5 -16t-3.5 -16.5t-7.5 -16.5q-1 -2 -4 -4.5t-12 -2.5q1 -5 -1 -9t-3 -7q-3 -2 -6.5 -3.5t-7.5 -1.5q1 -7 -2 -9.5t-3 -6.5l-12.5 -12.5l-9.5 -9.5
q-3 -2 -5.5 -3t-5.5 -1t-5.5 1.5t-3.5 5.5q2 3 12.5 14.5t19.5 29.5q5 10 9 25.5t5 28.5z" />
    <glyph glyph-name="icircumflex" unicode="&#xee;" horiz-adv-x="140" 
d="M69 233q12 0 20 -6.5t9 -15.5q-5 -8 -9.5 -12t-17.5 -4q1 -7 1 -15.5t-3 -13.5q-4 -8 -8.5 -8t-10.5 -5q4 -10 2 -20t-5 -20q-5 -17 -7.5 -33.5t-3.5 -29.5q1 -13 5 -21t16 -8q10 0 20.5 10.5t17.5 20.5q4 0 5.5 -1t2.5 -5q-22 -31 -42.5 -43.5t-33.5 -12.5
q-16 0 -28.5 11t-12.5 33q0 23 8 51.5t20.5 55.5t27 51.5t27.5 40.5zM179 474v-41q0 -32 6 -44t17 -23l-1.5 -5t-12.5 -5q-24 6 -36 24t-16 33q-13 -34 -42.5 -56t-44.5 -27q-4 -6 -7.5 -7.5t-5.5 -1.5q-6 0 -7 2.5t-1 8.5q20 9 37.5 23t30.5 29t23 29t15 23q1 6 2 11t4 10
q4 7 10.5 12t16.5 6h8t4 -1z" />
    <glyph glyph-name="idieresis" unicode="&#xef;" horiz-adv-x="140" 
d="M69 233q12 0 20 -6.5t9 -15.5q-5 -8 -9.5 -12t-17.5 -4q1 -7 1 -15.5t-3 -13.5q-4 -8 -8.5 -8t-10.5 -5q4 -10 2 -20t-5 -20q-5 -17 -7.5 -33.5t-3.5 -29.5q1 -13 5 -21t16 -8q10 0 20.5 10.5t17.5 20.5q4 0 5.5 -1t2.5 -5q-22 -31 -42.5 -43.5t-33.5 -12.5
q-16 0 -28.5 11t-12.5 33q0 23 8 51.5t20.5 55.5t27 51.5t27.5 40.5zM162 419q0 16 12 35t32 19q5 0 8 -2.5t1 -5.5q-11 0 -15 -9.5t-4 -16.5q0 -8 3 -15.5t10 -11.5q0 -9 -6 -16.5t-17 -7.5q-13 0 -18.5 9t-5.5 22zM107 450q12 0 16 -6.5t4 -14.5q0 -13 -6.5 -20t-6.5 -20
q0 -6 2.5 -10t9.5 -4q5 0 9.5 4t5.5 11q4 1 6.5 1t2.5 -6q-4 -13 -16 -22.5t-25 -9.5t-22.5 11t-9.5 32q0 14 7 32t23 22z" />
    <glyph glyph-name="ograve" unicode="&#xf2;" 
d="M68 207q3 0 4.5 -1.5t1.5 -3.5q-31 -32 -39.5 -64.5t-8.5 -54.5q0 -26 9.5 -40t26.5 -14q22 0 45.5 28.5t38.5 66.5q-1 -1 -3 -1h-3q-31 0 -46 15.5t-15 40.5q0 20 17 45.5t44 25.5q18 0 26 -13.5t8 -36.5q0 -13 -3 -28.5t-8 -31.5q14 4 27.5 13t29.5 22q3 0 4.5 -1.5
t1.5 -5.5q-9 -8 -28.5 -21.5t-38.5 -20.5q-8 -22 -19.5 -44t-24.5 -41q-4 -6 -10 -10t-15 -5q3 -8 1 -12t-6 -7q-5 1 -10 1t-12 -7q-2 -4 -6.5 -7.5t-10.5 -3.5q-28 0 -45 19.5t-17 49.5q0 47 28 87t56 61zM114 187q0 -22 8.5 -35.5t24.5 -13.5h2.5h2.5q5 16 8 32t3 30
t-4 26.5t-19 12.5q-16 0 -21 -18t-5 -34zM176 477q10 0 16.5 -7t6.5 -21q-2 -10 -4 -18t-2 -16q0 -12 5.5 -29t12.5 -30q-1 -5 -3 -6.5t-9 -1.5q-13 13 -31 41.5t-18 53.5q0 16 8 25t18 9z" />
    <glyph glyph-name="oacute" unicode="&#xf3;" 
d="M68 207q3 0 4.5 -1.5t1.5 -3.5q-31 -32 -39.5 -64.5t-8.5 -54.5q0 -26 9.5 -40t26.5 -14q22 0 45.5 28.5t38.5 66.5q-1 -1 -3 -1h-3q-31 0 -46 15.5t-15 40.5q0 20 17 45.5t44 25.5q18 0 26 -13.5t8 -36.5q0 -13 -3 -28.5t-8 -31.5q14 4 27.5 13t29.5 22q3 0 4.5 -1.5
t1.5 -5.5q-9 -8 -28.5 -21.5t-38.5 -20.5q-8 -22 -19.5 -44t-24.5 -41q-4 -6 -10 -10t-15 -5q3 -8 1 -12t-6 -7q-5 1 -10 1t-12 -7q-2 -4 -6.5 -7.5t-10.5 -3.5q-28 0 -45 19.5t-17 49.5q0 47 28 87t56 61zM114 187q0 -22 8.5 -35.5t24.5 -13.5h2.5h2.5q5 16 8 32t3 30
t-4 26.5t-19 12.5q-16 0 -21 -18t-5 -34zM201 451q2 13 11 17.5t16 4.5q10 0 14.5 -8t4.5 -16t-3.5 -16.5t-7.5 -16.5q-1 -2 -4 -4.5t-12 -2.5q1 -5 -1 -9t-3 -7q-3 -2 -6.5 -3.5t-7.5 -1.5q1 -7 -2 -9.5t-3 -6.5l-12.5 -12.5l-9.5 -9.5q-3 -2 -5.5 -3t-5.5 -1t-5.5 1.5
t-3.5 5.5q2 3 12.5 14.5t19.5 29.5q5 10 9 25.5t5 28.5z" />
    <glyph glyph-name="ocircumflex" unicode="&#xf4;" horiz-adv-x="218" 
d="M68 207q3 0 4.5 -1.5t1.5 -3.5q-31 -32 -39.5 -64.5t-8.5 -54.5q0 -26 9.5 -40t26.5 -14q22 0 45.5 28.5t38.5 66.5q-1 -1 -3 -1h-3q-31 0 -46 15.5t-15 40.5q0 20 17 45.5t44 25.5q18 0 26 -13.5t8 -36.5q0 -13 -3 -28.5t-8 -31.5q14 4 27.5 13t29.5 22q3 0 4.5 -1.5
t1.5 -5.5q-9 -8 -28.5 -21.5t-38.5 -20.5q-8 -22 -19.5 -44t-24.5 -41q-4 -6 -10 -10t-15 -5q3 -8 1 -12t-6 -7q-5 1 -10 1t-12 -7q-2 -4 -6.5 -7.5t-10.5 -3.5q-28 0 -45 19.5t-17 49.5q0 47 28 87t56 61zM114 187q0 -22 8.5 -35.5t24.5 -13.5h2.5h2.5q5 16 8 32t3 30
t-4 26.5t-19 12.5q-16 0 -21 -18t-5 -34zM218 474v-41q0 -32 6 -44t17 -23l-1.5 -5t-12.5 -5q-24 6 -36 24t-16 33q-13 -34 -42.5 -56t-44.5 -27q-4 -6 -7.5 -7.5t-5.5 -1.5q-6 0 -7 2.5t-1 8.5q20 9 37.5 23t30.5 29t23 29t15 23q1 6 2 11t4 10q4 7 10.5 12t16.5 6h8t4 -1z
" />
    <glyph glyph-name="odieresis" unicode="&#xf6;" horiz-adv-x="218" 
d="M68 207q3 0 4.5 -1.5t1.5 -3.5q-31 -32 -39.5 -64.5t-8.5 -54.5q0 -26 9.5 -40t26.5 -14q22 0 45.5 28.5t38.5 66.5q-1 -1 -3 -1h-3q-31 0 -46 15.5t-15 40.5q0 20 17 45.5t44 25.5q18 0 26 -13.5t8 -36.5q0 -13 -3 -28.5t-8 -31.5q14 4 27.5 13t29.5 22q3 0 4.5 -1.5
t1.5 -5.5q-9 -8 -28.5 -21.5t-38.5 -20.5q-8 -22 -19.5 -44t-24.5 -41q-4 -6 -10 -10t-15 -5q3 -8 1 -12t-6 -7q-5 1 -10 1t-12 -7q-2 -4 -6.5 -7.5t-10.5 -3.5q-28 0 -45 19.5t-17 49.5q0 47 28 87t56 61zM114 187q0 -22 8.5 -35.5t24.5 -13.5h2.5h2.5q5 16 8 32t3 30
t-4 26.5t-19 12.5q-16 0 -21 -18t-5 -34zM201 419q0 16 12 35t32 19q5 0 8 -2.5t1 -5.5q-11 0 -15 -9.5t-4 -16.5q0 -8 3 -15.5t10 -11.5q0 -9 -6 -16.5t-17 -7.5q-13 0 -18.5 9t-5.5 22zM146 450q12 0 16 -6.5t4 -14.5q0 -13 -6.5 -20t-6.5 -20q0 -6 2.5 -10t9.5 -4
q5 0 9.5 4t5.5 11q4 1 6.5 1t2.5 -6q-4 -13 -16 -22.5t-25 -9.5t-22.5 11t-9.5 32q0 14 7 32t23 22z" />
    <glyph glyph-name="ugrave" unicode="&#xf9;" horiz-adv-x="255" 
d="M92 260q12 3 18.5 -2.5t5.5 -12.5q-11 -13 -21 -27t-17 -29q-8 -5 -9.5 -10t-2.5 -10t-3.5 -10t-11.5 -9q5 -4 5 -8.5t-2 -10.5q-6 -3 -9.5 -8t-9.5 -13q8 -3 9 -7t0 -8q-2 -11 -3.5 -20t-1.5 -14q0 -10 6.5 -17t14.5 -7t25 12.5t42 55.5q8 14 18.5 35.5t21 43.5t20.5 42
t16 30q10 1 18 -3t9 -16q-17 -25 -31.5 -55.5t-24.5 -59t-16 -52t-6 -34.5q0 -12 5 -15.5t11 -3.5t13 4t14 13q3 1 5 -0.5t2 -4.5q-11 -18 -30 -28.5t-33 -10.5q-16 0 -22.5 8t-6.5 18q0 13 2 20t2 12q0 4 -3 6t-10 -7q-22 -25 -38 -33t-32 -8q-18 0 -29 10t-11 32t10 51.5
t25 59.5t32.5 57t33.5 44zM160 477q10 0 16.5 -7t6.5 -21q-2 -10 -4 -18t-2 -16q0 -12 5.5 -29t12.5 -30q-1 -5 -3 -6.5t-9 -1.5q-13 13 -31 41.5t-18 53.5q0 16 8 25t18 9z" />
    <glyph glyph-name="uacute" unicode="&#xfa;" 
d="M92 260q12 3 18.5 -2.5t5.5 -12.5q-11 -13 -21 -27t-17 -29q-8 -5 -9.5 -10t-2.5 -10t-3.5 -10t-11.5 -9q5 -4 5 -8.5t-2 -10.5q-6 -3 -9.5 -8t-9.5 -13q8 -3 9 -7t0 -8q-2 -11 -3.5 -20t-1.5 -14q0 -10 6.5 -17t14.5 -7t25 12.5t42 55.5q8 14 18.5 35.5t21 43.5t20.5 42
t16 30q10 1 18 -3t9 -16q-17 -25 -31.5 -55.5t-24.5 -59t-16 -52t-6 -34.5q0 -12 5 -15.5t11 -3.5t13 4t14 13q3 1 5 -0.5t2 -4.5q-11 -18 -30 -28.5t-33 -10.5q-16 0 -22.5 8t-6.5 18q0 13 2 20t2 12q0 4 -3 6t-10 -7q-22 -25 -38 -33t-32 -8q-18 0 -29 10t-11 32t10 51.5
t25 59.5t32.5 57t33.5 44zM220 451q2 13 11 17.5t16 4.5q10 0 14.5 -8t4.5 -16t-3.5 -16.5t-7.5 -16.5q-1 -2 -4 -4.5t-12 -2.5q1 -5 -1 -9t-3 -7q-3 -2 -6.5 -3.5t-7.5 -1.5q1 -7 -2 -9.5t-3 -6.5l-12.5 -12.5l-9.5 -9.5q-3 -2 -5.5 -3t-5.5 -1t-5.5 1.5t-3.5 5.5
q2 3 12.5 14.5t19.5 29.5q5 10 9 25.5t5 28.5z" />
    <glyph glyph-name="ucircumflex" unicode="&#xfb;" horiz-adv-x="255" 
d="M92 260q12 3 18.5 -2.5t5.5 -12.5q-11 -13 -21 -27t-17 -29q-8 -5 -9.5 -10t-2.5 -10t-3.5 -10t-11.5 -9q5 -4 5 -8.5t-2 -10.5q-6 -3 -9.5 -8t-9.5 -13q8 -3 9 -7t0 -8q-2 -11 -3.5 -20t-1.5 -14q0 -10 6.5 -17t14.5 -7t25 12.5t42 55.5q8 14 18.5 35.5t21 43.5t20.5 42
t16 30q10 1 18 -3t9 -16q-17 -25 -31.5 -55.5t-24.5 -59t-16 -52t-6 -34.5q0 -12 5 -15.5t11 -3.5t13 4t14 13q3 1 5 -0.5t2 -4.5q-11 -18 -30 -28.5t-33 -10.5q-16 0 -22.5 8t-6.5 18q0 13 2 20t2 12q0 4 -3 6t-10 -7q-22 -25 -38 -33t-32 -8q-18 0 -29 10t-11 32t10 51.5
t25 59.5t32.5 57t33.5 44zM237 474v-41q0 -32 6 -44t17 -23l-1.5 -5t-12.5 -5q-24 6 -36 24t-16 33q-13 -34 -42.5 -56t-44.5 -27q-4 -6 -7.5 -7.5t-5.5 -1.5q-6 0 -7 2.5t-1 8.5q20 9 37.5 23t30.5 29t23 29t15 23q1 6 2 11t4 10q4 7 10.5 12t16.5 6h8t4 -1z" />
    <glyph glyph-name="udieresis" unicode="&#xfc;" horiz-adv-x="255" 
d="M92 260q12 3 18.5 -2.5t5.5 -12.5q-11 -13 -21 -27t-17 -29q-8 -5 -9.5 -10t-2.5 -10t-3.5 -10t-11.5 -9q5 -4 5 -8.5t-2 -10.5q-6 -3 -9.5 -8t-9.5 -13q8 -3 9 -7t0 -8q-2 -11 -3.5 -20t-1.5 -14q0 -10 6.5 -17t14.5 -7t25 12.5t42 55.5q8 14 18.5 35.5t21 43.5t20.5 42
t16 30q10 1 18 -3t9 -16q-17 -25 -31.5 -55.5t-24.5 -59t-16 -52t-6 -34.5q0 -12 5 -15.5t11 -3.5t13 4t14 13q3 1 5 -0.5t2 -4.5q-11 -18 -30 -28.5t-33 -10.5q-16 0 -22.5 8t-6.5 18q0 13 2 20t2 12q0 4 -3 6t-10 -7q-22 -25 -38 -33t-32 -8q-18 0 -29 10t-11 32t10 51.5
t25 59.5t32.5 57t33.5 44zM220 419q0 16 12 35t32 19q5 0 8 -2.5t1 -5.5q-11 0 -15 -9.5t-4 -16.5q0 -8 3 -15.5t10 -11.5q0 -9 -6 -16.5t-17 -7.5q-13 0 -18.5 9t-5.5 22zM165 450q12 0 16 -6.5t4 -14.5q0 -13 -6.5 -20t-6.5 -20q0 -6 2.5 -10t9.5 -4q5 0 9.5 4t5.5 11
q4 1 6.5 1t2.5 -6q-4 -13 -16 -22.5t-25 -9.5t-22.5 11t-9.5 32q0 14 7 32t23 22z" />
    <glyph glyph-name="yacute" unicode="&#xfd;" 
d="M63 213q3 0 7.5 -1.5t11.5 -5.5q-6 -10 -11 -18.5t-10 -18.5q-3 -6 -7 -12t-14 -11q12 -2 10 -12.5t-4 -20.5q-4 -18 -6 -31t-2 -27q0 -20 7.5 -25t14.5 -5t15.5 3.5t16.5 10.5q9 7 14.5 17t7.5 20q10 54 23.5 95.5t29.5 41.5q12 1 18.5 -6t9.5 -12q-9 -16 -30 -72.5
t-32 -131.5q-1 -11 -3 -22l-4 -22q17 13 31 28t24 31q4 1 7 -0.5t3 -4.5q-13 -22 -30 -38.5t-39 -32.5q-6 -29 -14 -57.5t-18 -53.5q-4 -4 -6.5 -8.5t-7.5 -10.5q-1 -16 -4 -24.5t-6 -15.5q-4 -8 -11.5 -14t-10.5 -17q1 -5 -1 -11.5t-6 -11.5q-13 -21 -26.5 -33t-24.5 -12
q-9 0 -15 8.5t-6 33.5q0 51 21 105t75 92q7 4 13.5 9.5t13.5 9.5q6 34 11.5 67t7.5 42q1 7 -1 8t-6 -4q-10 -11 -28.5 -26.5t-35.5 -15.5t-31 10.5t-14 41.5q0 32 17.5 76t35.5 76q4 7 8 13t11 6zM-24 -297q0 -16 2 -23.5t9 -7.5q11 0 25 20.5t27.5 53.5t26 75t19.5 83
q-4 -3 -8.5 -6t-8.5 -6q-28 -20 -46.5 -45t-28.5 -50q-1 -3 -3 -6t-8 -7q4 -1 4 -3.5v-5.5q-1 -2 -3 -5t-1 -6q-4 -16 -5 -32t-1 -29zM215 451q2 13 11 17.5t16 4.5q10 0 14.5 -8t4.5 -16t-3.5 -16.5t-7.5 -16.5q-1 -2 -4 -4.5t-12 -2.5q1 -5 -1 -9t-3 -7q-3 -2 -6.5 -3.5
t-7.5 -1.5q1 -7 -2 -9.5t-3 -6.5l-12.5 -12.5l-9.5 -9.5q-3 -2 -5.5 -3t-5.5 -1t-5.5 1.5t-3.5 5.5q2 3 12.5 14.5t19.5 29.5q5 10 9 25.5t5 28.5z" />
    <glyph glyph-name="ydieresis" unicode="&#xff;" horiz-adv-x="245" 
d="M63 213q3 0 7.5 -1.5t11.5 -5.5q-6 -10 -11 -18.5t-10 -18.5q-3 -6 -7 -12t-14 -11q12 -2 10 -12.5t-4 -20.5q-4 -18 -6 -31t-2 -27q0 -20 7.5 -25t14.5 -5t15.5 3.5t16.5 10.5q9 7 14.5 17t7.5 20q10 54 23.5 95.5t29.5 41.5q12 1 18.5 -6t9.5 -12q-9 -16 -30 -72.5
t-32 -131.5q-1 -11 -3 -22l-4 -22q17 13 31 28t24 31q4 1 7 -0.5t3 -4.5q-13 -22 -30 -38.5t-39 -32.5q-6 -29 -14 -57.5t-18 -53.5q-4 -4 -6.5 -8.5t-7.5 -10.5q-1 -16 -4 -24.5t-6 -15.5q-4 -8 -11.5 -14t-10.5 -17q1 -5 -1 -11.5t-6 -11.5q-13 -21 -26.5 -33t-24.5 -12
q-9 0 -15 8.5t-6 33.5q0 51 21 105t75 92q7 4 13.5 9.5t13.5 9.5q6 34 11.5 67t7.5 42q1 7 -1 8t-6 -4q-10 -11 -28.5 -26.5t-35.5 -15.5t-31 10.5t-14 41.5q0 32 17.5 76t35.5 76q4 7 8 13t11 6zM-24 -297q0 -16 2 -23.5t9 -7.5q11 0 25 20.5t27.5 53.5t26 75t19.5 83
q-4 -3 -8.5 -6t-8.5 -6q-28 -20 -46.5 -45t-28.5 -50q-1 -3 -3 -6t-8 -7q4 -1 4 -3.5v-5.5q-1 -2 -3 -5t-1 -6q-4 -16 -5 -32t-1 -29zM185 419q0 16 12 35t32 19q5 0 8 -2.5t1 -5.5q-11 0 -15 -9.5t-4 -16.5q0 -8 3 -15.5t10 -11.5q0 -9 -6 -16.5t-17 -7.5q-13 0 -18.5 9
t-5.5 22zM130 450q12 0 16 -6.5t4 -14.5q0 -13 -6.5 -20t-6.5 -20q0 -6 2.5 -10t9.5 -4q5 0 9.5 4t5.5 11q4 1 6.5 1t2.5 -6q-4 -13 -16 -22.5t-25 -9.5t-22.5 11t-9.5 32q0 14 7 32t23 22z" />
    <glyph glyph-name="Cacute" unicode="&#x106;" 
d="M397 -141q-13 0 -16.5 -3.5t-12.5 -2.5q-8 2 -12.5 3t-8.5 -3q-4 0 -8.5 1.5t-14.5 8.5q-4 1 -7 -1t-7 -5q-26 5 -44.5 18t-28.5 31q-31 12 -49.5 41.5t-18.5 76.5q0 66 35 146.5t94 161.5l-24 -2t-23 -1q-73 0 -112 22t-39 71q0 48 38.5 99t96.5 93t127.5 69t131.5 27
q20 0 33 -4.5t17 -9.5q0 -3 -2 -5t-5 -2q-7 7 -17.5 9t-25.5 2q-54 0 -116 -25t-114.5 -64.5t-87 -89.5t-34.5 -100q0 -53 34 -66.5t76 -13.5q13 0 27 1t28 3q54 71 122.5 137.5t142.5 116.5t152 80.5t150 30.5q15 0 23.5 -5.5t8.5 -18.5q0 -28 -52.5 -79.5t-133.5 -104.5
t-181.5 -99.5t-195.5 -64.5q-51 -76 -77 -152t-26 -146q0 -10 0.5 -19t1.5 -17q21 49 67 104.5t103.5 101.5t122 77t120.5 31q33 0 45 -16t12 -42q0 -49 -49 -112t-116.5 -118.5t-140 -94t-118.5 -38.5q12 -10 30.5 -16t43.5 -6q65 0 119.5 27t91.5 52q2 0 3.5 -3t1.5 -5
q-7 -6 -25.5 -17.5t-43.5 -24.5t-54.5 -25.5t-57.5 -19.5zM482 503q-4 1 -9.5 -0.5t-10.5 -6.5q1 -2 0 -9.5t-7 -12.5q-3 -3 -7.5 -4.5t-10.5 -1.5q-1 -5 -3 -9t-3 -10q-22 -24 -42 -48t-36 -48q91 19 187.5 64t175.5 96t129.5 99t50.5 73q0 9 -7.5 12t-14.5 3
q-91 0 -186 -49.5t-179 -123.5q-4 -3 -8 -5.5t-7 1.5q-4 -10 -6.5 -14t-5.5 -6zM655 308q-58 0 -125.5 -37t-125.5 -90.5t-97.5 -114.5t-42.5 -108q10 -8 26 -12.5t39 -4.5q49 0 114 35t122 84t97 104.5t40 95.5q0 23 -11 35.5t-36 12.5zM619 871q2 13 11 17.5t16 4.5
q10 0 14.5 -8t4.5 -16t-3.5 -16.5t-7.5 -16.5q-1 -2 -4 -4.5t-12 -2.5q1 -5 -1 -9t-3 -7q-3 -2 -6.5 -3.5t-7.5 -1.5q1 -7 -2 -9.5t-3 -6.5l-12.5 -12.5l-9.5 -9.5q-3 -2 -5.5 -3t-5.5 -1t-5.5 1.5t-3.5 5.5q2 3 12.5 14.5t19.5 29.5q5 10 9 25.5t5 28.5z" />
    <glyph glyph-name="cacute" unicode="&#x107;" 
d="M97 164q-4 0 -9 1t-9 3q0 3 1 6t3 4q4 -1 7.5 -2t6.5 -1q19 0 35 10t16 29q0 7 -4 13t-17 6q-17 0 -35 -13.5t-32 -34.5t-23 -48.5t-9 -55.5q0 -43 17 -58t36 -15q22 0 41.5 16t34.5 38q4 1 6 0t3 -5q-13 -24 -43 -48.5t-67 -24.5q-6 0 -13 1.5t-12 2.5q-13 5 -15.5 9
t-3.5 13q-10 0 -14 3.5t-7 9.5q-1 4 -1.5 9t5.5 15q-1 5 -4 9t-7 6q0 34 14 67t35 58.5t46 41t48 15.5q16 0 24 -8.5t8 -21.5t-6 -23t-14 -14q-4 2 -7.5 1t-4.5 -8q-4 -4 -10 -3t-11 4q-2 -5 -4 -6t-5 -1zM192 451q2 13 11 17.5t16 4.5q10 0 14.5 -8t4.5 -16t-3.5 -16.5
t-7.5 -16.5q-1 -2 -4 -4.5t-12 -2.5q1 -5 -1 -9t-3 -7q-3 -2 -6.5 -3.5t-7.5 -1.5q1 -7 -2 -9.5t-3 -6.5l-12.5 -12.5l-9.5 -9.5q-3 -2 -5.5 -3t-5.5 -1t-5.5 1.5t-3.5 5.5q2 3 12.5 14.5t19.5 29.5q5 10 9 25.5t5 28.5z" />
    <glyph glyph-name="Ccircumflex" unicode="&#x108;" 
d="M397 -141q-13 0 -16.5 -3.5t-12.5 -2.5q-8 2 -12.5 3t-8.5 -3q-4 0 -8.5 1.5t-14.5 8.5q-4 1 -7 -1t-7 -5q-26 5 -44.5 18t-28.5 31q-31 12 -49.5 41.5t-18.5 76.5q0 66 35 146.5t94 161.5l-24 -2t-23 -1q-73 0 -112 22t-39 71q0 48 38.5 99t96.5 93t127.5 69t131.5 27
q20 0 33 -4.5t17 -9.5q0 -3 -2 -5t-5 -2q-7 7 -17.5 9t-25.5 2q-54 0 -116 -25t-114.5 -64.5t-87 -89.5t-34.5 -100q0 -53 34 -66.5t76 -13.5q13 0 27 1t28 3q54 71 122.5 137.5t142.5 116.5t152 80.5t150 30.5q15 0 23.5 -5.5t8.5 -18.5q0 -28 -52.5 -79.5t-133.5 -104.5
t-181.5 -99.5t-195.5 -64.5q-51 -76 -77 -152t-26 -146q0 -10 0.5 -19t1.5 -17q21 49 67 104.5t103.5 101.5t122 77t120.5 31q33 0 45 -16t12 -42q0 -49 -49 -112t-116.5 -118.5t-140 -94t-118.5 -38.5q12 -10 30.5 -16t43.5 -6q65 0 119.5 27t91.5 52q2 0 3.5 -3t1.5 -5
q-7 -6 -25.5 -17.5t-43.5 -24.5t-54.5 -25.5t-57.5 -19.5zM482 503q-4 1 -9.5 -0.5t-10.5 -6.5q1 -2 0 -9.5t-7 -12.5q-3 -3 -7.5 -4.5t-10.5 -1.5q-1 -5 -3 -9t-3 -10q-22 -24 -42 -48t-36 -48q91 19 187.5 64t175.5 96t129.5 99t50.5 73q0 9 -7.5 12t-14.5 3
q-91 0 -186 -49.5t-179 -123.5q-4 -3 -8 -5.5t-7 1.5q-4 -10 -6.5 -14t-5.5 -6zM655 308q-58 0 -125.5 -37t-125.5 -90.5t-97.5 -114.5t-42.5 -108q10 -8 26 -12.5t39 -4.5q49 0 114 35t122 84t97 104.5t40 95.5q0 23 -11 35.5t-36 12.5zM636 894v-41q0 -32 6 -44t17 -23
l-1.5 -5t-12.5 -5q-24 6 -36 24t-16 33q-13 -34 -42.5 -56t-44.5 -27q-4 -6 -7.5 -7.5t-5.5 -1.5q-6 0 -7 2.5t-1 8.5q20 9 37.5 23t30.5 29t23 29t15 23q1 6 2 11t4 10q4 7 10.5 12t16.5 6h8t4 -1z" />
    <glyph glyph-name="ccircumflex" unicode="&#x109;" 
d="M97 164q-4 0 -9 1t-9 3q0 3 1 6t3 4q4 -1 7.5 -2t6.5 -1q19 0 35 10t16 29q0 7 -4 13t-17 6q-17 0 -35 -13.5t-32 -34.5t-23 -48.5t-9 -55.5q0 -43 17 -58t36 -15q22 0 41.5 16t34.5 38q4 1 6 0t3 -5q-13 -24 -43 -48.5t-67 -24.5q-6 0 -13 1.5t-12 2.5q-13 5 -15.5 9
t-3.5 13q-10 0 -14 3.5t-7 9.5q-1 4 -1.5 9t5.5 15q-1 5 -4 9t-7 6q0 34 14 67t35 58.5t46 41t48 15.5q16 0 24 -8.5t8 -21.5t-6 -23t-14 -14q-4 2 -7.5 1t-4.5 -8q-4 -4 -10 -3t-11 4q-2 -5 -4 -6t-5 -1zM209 474v-41q0 -32 6 -44t17 -23l-1.5 -5t-12.5 -5q-24 6 -36 24
t-16 33q-13 -34 -42.5 -56t-44.5 -27q-4 -6 -7.5 -7.5t-5.5 -1.5q-6 0 -7 2.5t-1 8.5q20 9 37.5 23t30.5 29t23 29t15 23q1 6 2 11t4 10q4 7 10.5 12t16.5 6h8t4 -1z" />
    <glyph glyph-name="Gcircumflex" unicode="&#x11c;" 
d="M599 725q11 0 16.5 -3.5t5.5 -10.5q0 -4 -1.5 -9t-4.5 -9q-3 -1 -6.5 0.5t-4.5 4.5q2 4 3.5 6t1.5 5t-3 4t-9 1q-28 0 -82 -25t-107 -63.5t-93 -86t-40 -92.5q0 -26 15.5 -42.5t50.5 -16.5h10.5t10.5 1q28 54 82.5 109.5t117 99.5t124.5 71.5t103 27.5q28 0 39 -13
t11 -28q0 -29 -41 -68t-103 -77.5t-135 -72t-137 -49.5q-4 -13 -6.5 -27t-2.5 -27q0 -25 12 -34t31 -9q28 0 56 12.5t48 40.5q7 20 12 34t10 24q10 12 26 11.5t22 -3.5q-22 -56 -31.5 -94.5t-17.5 -78.5q-1 -8 -3.5 -18t-3.5 -20q-5 -21 -13.5 -30.5t-22.5 -20.5
q2 -10 2.5 -20t-0.5 -19q7 -3 13.5 -6t13.5 -7q1 -2 0 -4.5t-4 -4.5q-5 3 -11.5 6t-13.5 6q-2 -6 -4.5 -11.5t-5.5 -10.5q1 -13 -2 -22.5t-7 -17.5q-22 -51 -50 -92.5t-56 -72.5q-74 -78 -158 -105.5t-152 -27.5q-93 0 -130.5 34t-37.5 72q0 42 35 92.5t97 93.5t146.5 72.5
t183.5 29.5q30 0 56 -3t48 -8q7 22 13.5 47t12.5 51q7 36 14 53.5t10 28.5q2 10 -2 9.5t-9 -6.5q-16 -14 -52.5 -35t-79.5 -21q-36 0 -52.5 17.5t-16.5 42.5q0 16 4.5 33t11.5 34q-5 -1 -10.5 -1h-10.5q-63 0 -89 19.5t-26 50.5q0 46 47.5 96t110 90t126 66.5t95.5 26.5z
M789 686q-36 0 -89.5 -24t-107 -63.5t-99.5 -91t-66 -105.5q61 17 131.5 49t130 69t99.5 73.5t40 62.5q0 14 -11.5 22t-27.5 8zM-53 -154q0 -46 45.5 -70.5t111.5 -24.5q61 0 117.5 15.5t106.5 56t93.5 110.5t77.5 178q-22 5 -48 8.5t-53 3.5q-50 0 -96.5 -8t-88.5 -22
q-5 -1 -10 -2.5t-9 1.5q-4 -2 -8 -5t-7 -7q-4 -1 -7 -1.5t-7 3.5q-1 -4 -5 -8t-7 -5q-4 1 -8.5 -1.5t-12.5 -0.5q0 -5 -3.5 -8.5t-7.5 -6.5q-80 -44 -127 -102.5t-47 -103.5zM623 894v-41q0 -32 6 -44t17 -23l-1.5 -5t-12.5 -5q-24 6 -36 24t-16 33q-13 -34 -42.5 -56
t-44.5 -27q-4 -6 -7.5 -7.5t-5.5 -1.5q-6 0 -7 2.5t-1 8.5q20 9 37.5 23t30.5 29t23 29t15 23q1 6 2 11t4 10q4 7 10.5 12t16.5 6h8t4 -1z" />
    <glyph glyph-name="gcircumflex" unicode="&#x11d;" 
d="M146 233q19 0 24.5 -8.5t5.5 -17.5q0 -13 -7.5 -26t-24.5 -24q-7 -14 -13.5 -36t-12.5 -47q10 11 18.5 22.5t14.5 21.5q4 2 6.5 0t2.5 -5q-10 -13 -22 -28.5t-25 -30.5q-4 -22 -9.5 -45t-9.5 -44l-2 -12l-2 -12q34 31 65.5 70.5t52.5 83.5q4 2 6.5 1t3.5 -4
q-14 -33 -47.5 -77.5t-83.5 -87.5q-14 -69 -29.5 -112.5t-31 -67.5t-31 -32.5t-28.5 -8.5q-19 0 -32 14t-13 40q0 40 36 73t86 71q4 19 8 36.5t8 31.5q1 8 3.5 17t5.5 18q-15 -14 -29 -22.5t-24 -8.5q-17 0 -28.5 16t-11.5 41q0 40 19.5 76.5t46.5 64t56 43.5t48 16zM24 43
q0 -16 3.5 -26t13.5 -10q6 0 16 7t21 17q2 6 5 11.5t5 11.5q1 4 2 9t5 18q3 6 6.5 9t7.5 3q0 7 -0.5 11.5t0.5 7.5q3 4 5.5 6.5t8.5 3.5q1 6 -0.5 9.5t-2.5 6.5l4 6t3 5q-4 1 -6.5 3.5t-2.5 7.5q11 17 29 24t18 23q0 7 -3.5 11t-15.5 4q-19 0 -41 -17t-39.5 -42.5
t-29.5 -57.5t-12 -62zM-33 -283h6.5t7.5 -1q3 3 3 5.5t1 3.5q2 1 5 3.5t7 3.5q2 4 2.5 6.5t-0.5 5.5q2 4 4 8.5t3 10.5q8 25 17 59t17 67q-40 -31 -73.5 -62t-33.5 -67q0 -22 11 -32.5t23 -10.5zM231 474v-41q0 -32 6 -44t17 -23l-1.5 -5t-12.5 -5q-24 6 -36 24t-16 33
q-13 -34 -42.5 -56t-44.5 -27q-4 -6 -7.5 -7.5t-5.5 -1.5q-6 0 -7 2.5t-1 8.5q20 9 37.5 23t30.5 29t23 29t15 23q1 6 2 11t4 10q4 7 10.5 12t16.5 6h8t4 -1z" />
    <glyph glyph-name="Hcircumflex" unicode="&#x124;" 
d="M664 729q31 0 46.5 -16.5t15.5 -33.5v-1q10 4 21.5 6t22.5 2q22 0 39 -16t17 -46q0 -22 -21 -58t-62 -77t-103 -84t-143 -77q-15 -51 -25 -89.5t-15.5 -69t-7.5 -56t-2 -51.5q0 -28 6.5 -54.5t20.5 -47t35 -33t50 -12.5q8 0 16.5 1.5t17.5 4.5q-18 25 -27.5 57.5
t-9.5 73.5q0 48 14 95.5t38 84.5t56.5 60t69.5 23q20 0 32 -10.5t18.5 -26t8.5 -32.5t2 -29q0 -30 -12.5 -70t-34 -81t-51 -79t-64.5 -63q23 -27 57 -42.5t76 -15.5q66 0 106.5 22t65.5 48q3 0 4 -2t1 -6q-28 -24 -69.5 -48t-119.5 -24q-49 -1 -86.5 12t-62.5 39
q-16 -8 -33.5 -12.5t-34.5 -4.5q-22 0 -46 8t-43 26.5t-31.5 50t-12.5 78.5q0 72 19 139.5t42 123.5q-4 -1 -9 -3t-9 -3q-7 -16 -13 -29t-10 -14q-3 -20 -12 -51t-19.5 -61t-19.5 -53.5t-11 -28.5q-2 -3 -2.5 -1l-0.5 2q13 62 29 121.5t26 92.5l1.5 3.5t2.5 9.5q-4 -1 -9 -3
t-9 -3q-36 -113 -84 -185t-94 -112t-83.5 -55t-51.5 -15q-26 0 -41.5 15t-15.5 42q0 90 85 168t236 135q1 3 1.5 6.5t1.5 7.5q10 43 21 74t26 73l14 30t14 29q-8 -1 -16.5 -3t-16.5 -3q-53 -7 -99.5 -17t-84.5 -22q-4 -1 -8.5 -2t-7.5 0q-6 -4 -10.5 -6.5t-8.5 -3.5
q-4 -2 -9.5 -3t-12.5 1q-5 -4 -9 -8t-6 -10q-4 0 -9 -1t-11 1q-1 -7 -4 -9.5t-6 -4.5q-28 -19 -43 -39t-15 -42q0 -17 13 -25.5t35 -8.5q23 0 60 10t74.5 28.5t70.5 46.5t47 64q4 1 7.5 0.5t4.5 -6.5q-12 -26 -42 -54t-68 -50t-79 -36t-75 -14q-21 0 -40 9.5t-19 35.5
q0 48 79.5 98.5t275.5 76.5q10 1 19.5 3.5t19.5 4.5q12 24 26 47t28 43q4 5 8.5 10t11.5 6q4 12 9.5 20.5t9.5 14.5q8 6 14 11.5t17 6.5q-1 7 5.5 9t6.5 9q22 16 45 24.5t48 8.5zM664 718q-34 0 -60.5 -15t-48.5 -40.5t-40 -60t-34 -72.5q36 9 66 19.5t55 21.5q25 34 53 61
t59 41v3v3q0 13 -11.5 26t-38.5 13zM526 420q-7 -22 -13.5 -42t-11.5 -38q69 30 127 69t99.5 78t64.5 75.5t23 61.5q0 21 -11.5 36t-33.5 15q-11 0 -22.5 -2.5t-22.5 -6.5q-6 -24 -35 -52.5t-86 -53.5q-19 -28 -39 -63t-39 -77zM710 660q-22 -11 -45.5 -31.5t-45.5 -48.5
q39 19 61.5 40t29.5 40zM447 374q4 4 10 6l6 2h3.5t3.5 -4q-3 -10 -8 -25.5t-11 -31.5q4 1 8 2.5t8 2.5l3 1q11 26 22 49.5t20 43.5q15 31 34.5 65.5t42.5 67.5q-23 -9 -51.5 -18t-61.5 -17q-6 -14 -11.5 -29t-11.5 -30q-10 -23 -18 -45.5t-16 -49.5q-4 -15 -8 -29.5
t-8 -28.5q4 1 9.5 3t9.5 3q5 16 12.5 35.5t12.5 26.5zM591 51q0 -34 8.5 -63t24.5 -51q29 19 58 50.5t51.5 69t36.5 79.5t14 81q0 10 -1.5 25t-6.5 29t-15 23.5t-27 9.5q-26 0 -51.5 -18.5t-45.5 -51.5t-33 -80t-13 -103zM41 -15q0 -22 12 -33.5t34 -11.5q13 0 45 13
t71 49.5t78.5 102.5t66.5 171q-60 -23 -115.5 -52.5t-98 -65.5t-68 -79t-25.5 -94zM699 894v-41q0 -32 6 -44t17 -23l-1.5 -5t-12.5 -5q-24 6 -36 24t-16 33q-13 -34 -42.5 -56t-44.5 -27q-4 -6 -7.5 -7.5t-5.5 -1.5q-6 0 -7 2.5t-1 8.5q20 9 37.5 23t30.5 29t23 29t15 23
q1 6 2 11t4 10q4 7 10.5 12t16.5 6h8t4 -1z" />
    <glyph glyph-name="hcircumflex" unicode="&#x125;" 
d="M259 590q11 0 15.5 -9.5t4.5 -28.5q0 -6 -0.5 -11.5t-0.5 -9.5q-1 -4 -2.5 -7.5t-5.5 -7.5q1 -2 2.5 -5.5t-0.5 -7.5q1 -1 -1.5 -4t-6.5 -7q2 -3 1 -6t-2 -7q-4 -1 -4.5 -3.5t1.5 -5.5q-1 -3 -2 -5.5t-2 -5.5q-21 -47 -57 -94.5t-81 -75.5q-1 -1 -1 -3t-1 -3
q-22 -61 -44 -118.5t-40 -103t-31 -76t-17 -37.5q4 -16 4 -31.5t-2 -23.5q-11 -6 -24.5 -2.5t-13.5 12.5q1 7 4.5 20.5t9.5 31.5q1 5 4 10.5t10 9.5q2 8 2 14.5t-2 10.5q1 4 3.5 8t8.5 5q-3 7 -2 12.5t2 9.5q11 32 23.5 66.5t24.5 68.5t23 65t19 55q18 50 42.5 103.5
t49.5 97t48.5 71.5t40.5 28zM259 580q-12 0 -28.5 -24t-34 -61.5t-35.5 -84.5t-34 -93q28 19 53.5 48t45.5 61.5t32 65.5t12 60q0 9 -1.5 18.5t-9.5 9.5zM61 112q9 11 25.5 34t37 46t43.5 40t43 17q11 0 18.5 -7t7.5 -20q0 -18 -11.5 -40t-25.5 -46t-25.5 -48.5t-11.5 -47.5
q0 -8 3 -13.5t9 -5.5q12 0 29.5 18t24.5 41q4 0 8 -2t4 -6q-6 -12 -14.5 -26t-20.5 -26.5t-28 -21t-35 -8.5q-13 0 -25.5 7t-12.5 25q0 17 14 44.5t31 54.5t31 50t14 31q0 3 -0.5 7.5t-8.5 4.5q-7 0 -19 -7t-28 -20q-4 0 -6.5 -1.5t-4.5 -3.5q1 -4 -1 -6.5t-3 -3.5
q-3 -1 -6.5 -2.5t-5.5 -4.5q0 -4 -2 -7.5t-4 -6.5q-3 -3 -5.5 -6t-6.5 -8q-7 -9 -13 -17t-10 -14q-4 -1 -6.5 1t-2.5 5zM252 794v-41q0 -32 6 -44t17 -23l-1.5 -5t-12.5 -5q-24 6 -36 24t-16 33q-13 -34 -42.5 -56t-44.5 -27q-4 -6 -7.5 -7.5t-5.5 -1.5q-6 0 -7 2.5t-1 8.5
q20 9 37.5 23t30.5 29t23 29t15 23q1 6 2 11t4 10q4 7 10.5 12t16.5 6h8t4 -1z" />
    <glyph glyph-name="dotlessi" unicode="&#x131;" horiz-adv-x="140" 
d="M69 233q12 0 20 -6.5t9 -15.5q-5 -8 -9.5 -12t-17.5 -4q1 -7 1 -15.5t-3 -13.5q-4 -8 -8.5 -8t-10.5 -5q4 -10 2 -20t-5 -20q-5 -17 -7.5 -33.5t-3.5 -29.5q1 -13 5 -21t16 -8q10 0 20.5 10.5t17.5 20.5q4 0 5.5 -1t2.5 -5q-22 -31 -42.5 -43.5t-33.5 -12.5
q-16 0 -28.5 11t-12.5 33q0 23 8 51.5t20.5 55.5t27 51.5t27.5 40.5z" />
    <glyph glyph-name="Jcircumflex" unicode="&#x134;" 
d="M703 710q12 0 19 -5t7 -17q0 -28 -52.5 -72t-177.5 -93q-5 -10 -10 -21t-10 -23q-4 -10 -10 -11.5t-13 -6.5q1 -28 -1 -40.5t-5 -21.5q-10 -4 -11.5 -15t-14.5 -12q7 -19 6 -31t-3 -22q-4 -14 -7.5 -30t-6.5 -32q-7 -26 -14 -51t-14 -48q30 22 60 44.5t59 43.5
q4 -1 5.5 -4t0.5 -5q-31 -22 -64 -46.5t-67 -49.5q-37 -108 -82.5 -184.5t-94 -124.5t-99 -70t-96.5 -22q-19 0 -29 7t-10 21q0 20 28.5 55t76.5 80t111.5 97.5t132.5 105.5q13 37 25 76t23 81q19 77 42 137.5t48 106.5q-19 -7 -39 -13.5t-41 -13.5q-92 -29 -157.5 -64
t-106.5 -68.5t-60 -63t-19 -47.5q0 -7 6 -12.5t20 -5.5q28 0 65.5 16t73.5 38.5t67 47t46 41.5q14 24 19.5 38t16.5 15q1 -1 2.5 -2t2.5 -3q0 -8 -6 -21t-26 -32q-7 -10 -37 -35t-69.5 -50t-82 -44.5t-73.5 -19.5q-13 0 -24.5 6.5t-11.5 22.5q0 24 25 58t70.5 69t110.5 67.5
t144 54.5q24 7 46.5 15.5t42.5 15.5q39 68 80 107t75.5 58t58.5 23.5t29 4.5zM704 699q-10 0 -31 -4t-48.5 -20t-58.5 -49.5t-62 -91.5q115 46 164.5 86.5t49.5 67.5q0 5 -3 8t-11 3zM-21 -232q0 -9 6 -13t19 -4q48 0 91.5 24t81.5 68t71.5 106.5t61.5 138.5
q-65 -50 -125 -99.5t-105.5 -92.5t-73 -76.5t-27.5 -51.5zM522 894v-41q0 -32 6 -44t17 -23l-1.5 -5t-12.5 -5q-24 6 -36 24t-16 33q-13 -34 -42.5 -56t-44.5 -27q-4 -6 -7.5 -7.5t-5.5 -1.5q-6 0 -7 2.5t-1 8.5q20 9 37.5 23t30.5 29t23 29t15 23q1 6 2 11t4 10
q4 7 10.5 12t16.5 6h8t4 -1z" />
    <glyph glyph-name="Lacute" unicode="&#x139;" 
d="M592 549q24 0 34 -8.5t17 -21.5q-1 -4 -4 -5t-7 -1q-7 13 -15 18.5t-25 5.5q-30 0 -67.5 -20t-69.5 -51.5t-54 -70t-22 -74.5q0 -50 23 -67.5t72 -17.5h3h3q19 16 37.5 32.5t36.5 33.5q78 72 154.5 126t146.5 90t132.5 54t112.5 18q18 0 25.5 -6.5t7.5 -19.5
q0 -20 -60 -71t-150.5 -106t-198.5 -101.5t-203 -57.5q-37 -35 -75.5 -66t-78.5 -58q25 -26 43.5 -59t38 -61.5t45.5 -48.5t66 -20h1.5h1.5q-1 8 -2.5 17.5t-1.5 19.5q0 68 30.5 127.5t76 103.5t99.5 69.5t100 25.5q42 0 58 -21t16 -52q0 -30 -26 -72.5t-69 -84.5
t-98.5 -78.5t-113.5 -54.5q9 -43 38.5 -64t78.5 -21q57 0 101 18.5t73 42.5q5 0 6.5 -2.5t0.5 -7.5q-7 -4 -15 -10t-15 -10q-6 -4 -8.5 -2.5t-6.5 0.5q-13 -13 -20.5 -18t-14.5 -7q-5 -2 -11.5 -3.5t-13.5 1.5q-10 -4 -16.5 -10t-15.5 -7q-7 -1 -14 3.5t-17 3.5
q-7 -10 -15 -12.5t-17 -2.5q-23 0 -48 5t-47 16.5t-40 29.5t-27 43q-7 -1 -13 -1h-12q-53 0 -85 19.5t-51.5 47.5t-33 61t-30.5 60q-60 -40 -118 -70.5t-107 -51t-86.5 -31t-57.5 -10.5q-16 0 -25.5 8t-9.5 24q0 31 29 66t74 64t100.5 48t108.5 19q28 0 50.5 -7.5
t40.5 -20.5q31 22 62.5 47.5t62.5 51.5q-48 1 -77 12t-43.5 25.5t-19 30.5t-4.5 27q0 15 5 31t15 32q3 6 8 10.5t17 6.5q-4 9 -0.5 14.5t7.5 11.5q6 0 11.5 1t9.5 4q-1 11 3 17t9 10q7 7 16.5 12t25.5 6q-4 9 -0.5 12.5l7.5 7.5q35 24 71 38.5t64 14.5zM585 293
q-12 -13 -24.5 -26.5t-25.5 -25.5q95 13 199 59.5t190 99.5t142 100.5t56 63.5q0 7 -5 11t-18 4q-67 0 -138.5 -28.5t-139 -71t-129 -93t-107.5 -93.5zM627 -39q0 -9 0.5 -18t1.5 -16q53 16 107 51.5t96.5 76.5t69 81.5t26.5 68.5q0 20 -11.5 41t-51.5 21q-47 0 -90.5 -27.5
t-76 -71t-52 -98.5t-19.5 -109zM-50 -43q0 -8 6 -14.5t18 -6.5q25 0 62 12.5t82.5 35.5t98 56t107.5 73q-13 13 -30.5 21.5t-42.5 8.5q-56 0 -110 -19t-96.5 -47t-68.5 -60.5t-26 -59.5zM757 871q2 13 11 17.5t16 4.5q10 0 14.5 -8t4.5 -16t-3.5 -16.5t-7.5 -16.5
q-1 -2 -4 -4.5t-12 -2.5q1 -5 -1 -9t-3 -7q-3 -2 -6.5 -3.5t-7.5 -1.5q1 -7 -2 -9.5t-3 -6.5l-12.5 -12.5l-9.5 -9.5q-3 -2 -5.5 -3t-5.5 -1t-5.5 1.5t-3.5 5.5q2 3 12.5 14.5t19.5 29.5q5 10 9 25.5t5 28.5z" />
    <glyph glyph-name="lacute" unicode="&#x13a;" 
d="M263 615q16 0 18 -12t2 -19q0 -45 -18.5 -91.5t-45.5 -86t-59.5 -67.5t-60.5 -35q-21 -66 -33.5 -128t-11.5 -104q1 -22 8.5 -30.5t18.5 -8.5q16 1 37 14t47 48q4 0 5.5 -2t2.5 -5q-9 -13 -21.5 -30t-27.5 -32t-33.5 -26t-40.5 -11q-20 0 -32.5 11.5t-13.5 35.5
q-2 51 17.5 124.5t50.5 148.5q2 8 5.5 13t12.5 6q-2 11 -1 18.5t6 17.5q6 4 10.5 7.5t8.5 9.5q-1 8 -2 15t7 14q10 9 9 16.5t3 14.5q9 16 15 34t14 32q10 15 21 28t19 24q2 3 5 4.5t9 -1.5q-1 10 2 12.5t5 5.5q2 2 4.5 3t5.5 0q0 7 1.5 10.5t3.5 4.5q10 8 15 12.5t12 4.5z
M175 494q-18 -36 -35.5 -78.5t-32.5 -87.5q25 6 54 31.5t53.5 62t41 79t16.5 83.5q0 7 -1 13.5t-8 6.5q-10 0 -36.5 -30t-51.5 -80zM186 771q2 13 11 17.5t16 4.5q10 0 14.5 -8t4.5 -16t-3.5 -16.5t-7.5 -16.5q-1 -2 -4 -4.5t-12 -2.5q1 -5 -1 -9t-3 -7q-3 -2 -6.5 -3.5
t-7.5 -1.5q1 -7 -2 -9.5t-3 -6.5l-12.5 -12.5l-9.5 -9.5q-3 -2 -5.5 -3t-5.5 -1t-5.5 1.5t-3.5 5.5q2 3 12.5 14.5t19.5 29.5q5 10 9 25.5t5 28.5z" />
    <glyph glyph-name="Nacute" unicode="&#x143;" 
d="M546 710q5 0 9.5 -2.5t5.5 -7.5q-1 -14 -26 -52.5t-59 -100.5q-4 -27 -21 -78t-38 -109.5t-42 -115.5t-32 -96q19 26 80.5 150.5t154 262.5t213 249.5t254.5 111.5q37 0 60.5 -11.5t37 -30t18 -41t4.5 -44.5q0 -31 -10.5 -69.5t-29.5 -80.5q6 -13 8 -27.5t2 -26.5
q0 -54 -34 -113t-93 -122q-2 -1 -4 0t-3 4q19 20 38.5 48.5t35.5 60t26 63.5t10 58v12t-1 10q-34 -68 -84.5 -137.5t-108 -125t-119.5 -91t-119 -35.5q-48 0 -70.5 30t-22.5 62q0 58 41.5 127.5t103.5 128.5t135.5 99t137.5 40q37 0 61.5 -9.5t39.5 -24.5q4 10 7 20.5
t5 20.5q1 6 4 13t13 14q-7 6 -8 13t0 14q1 6 1 12v11q0 7 2 15t7 12q-8 8 -11.5 14t-0.5 14q4 15 -4 20.5t-3 13.5q-9 1 -15.5 7t-8.5 13q-6 -3 -13 -2t-12 5q-6 7 -11 5t-12 -2q-141 0 -263 -118.5t-214.5 -264t-154 -274t-82.5 -148.5q-7 -31 -14.5 -58t-23.5 -56
q-13 0 -21.5 5t-9.5 18q5 16 13.5 34t21.5 39q5 59 22 114t38.5 106.5t45 101t41.5 97.5q-31 -43 -75 -123.5t-108 -178.5q-32 -49 -71.5 -104t-79 -101.5t-75.5 -77t-62 -30.5q-21 0 -33 9t-12 28q0 16 12.5 30t29.5 21q2 0 3.5 -1.5t1.5 -4.5q-7 -4 -16.5 -15.5
t-9.5 -28.5q0 -10 5.5 -18.5t18.5 -8.5q22 0 56.5 29.5t73 74.5t78.5 100t72 106q60 90 104 169t98 160q14 53 36.5 100.5t54.5 69.5zM597 315q0 -43 27 -62t56 -19q57 0 119 39t119 99.5t104.5 135.5t74.5 147q-14 26 -39.5 35t-53.5 9q-62 0 -134 -39t-132 -97
t-100.5 -125t-40.5 -123zM758 871q2 13 11 17.5t16 4.5q10 0 14.5 -8t4.5 -16t-3.5 -16.5t-7.5 -16.5q-1 -2 -4 -4.5t-12 -2.5q1 -5 -1 -9t-3 -7q-3 -2 -6.5 -3.5t-7.5 -1.5q1 -7 -2 -9.5t-3 -6.5l-12.5 -12.5l-9.5 -9.5q-3 -2 -5.5 -3t-5.5 -1t-5.5 1.5t-3.5 5.5
q2 3 12.5 14.5t19.5 29.5q5 10 9 25.5t5 28.5z" />
    <glyph glyph-name="nacute" unicode="&#x144;" 
d="M177 122q-15 -24 -23 -38.5t-8 -32.5q0 -13 6.5 -18.5t16.5 -5.5q11 0 30.5 13t50.5 55q4 0 5.5 -0.5t2.5 -5.5q-11 -15 -23 -31.5t-25.5 -30.5t-30 -23t-36.5 -9q-18 0 -33 9t-15 30q0 31 21 54.5t37 45.5t22 34.5t6 19.5q0 2 -1 4t-3 2q-1 0 -4.5 -0.5t-5.5 -2.5
q-22 -22 -42.5 -36t-44.5 -27q-4 1 -5 4.5t0 5.5q10 4 23.5 13t23.5 18q2 1 5 3t7 1q1 5 2.5 7.5t4.5 4.5q5 1 10 2.5t5 14.5q4 4 8 8.5t11 12.5q11 13 18 23.5t16 10.5q6 0 11 -8.5t5 -21.5q0 -21 -10.5 -41.5t-37.5 -63.5zM-44 20q12 26 27.5 57.5t34 62.5t38.5 60.5
t39 53.5q2 1 4 1h4q8 0 14.5 -5t9.5 -12q-15 -20 -35.5 -50t-40 -63t-36 -65.5t-23.5 -56.5q-2 -1 -7.5 -2t-9.5 0q-7 2 -12 7t-7 12zM235 451q2 13 11 17.5t16 4.5q10 0 14.5 -8t4.5 -16t-3.5 -16.5t-7.5 -16.5q-1 -2 -4 -4.5t-12 -2.5q1 -5 -1 -9t-3 -7q-3 -2 -6.5 -3.5
t-7.5 -1.5q1 -7 -2 -9.5t-3 -6.5l-12.5 -12.5l-9.5 -9.5q-3 -2 -5.5 -3t-5.5 -1t-5.5 1.5t-3.5 5.5q2 3 12.5 14.5t19.5 29.5q5 10 9 25.5t5 28.5z" />
    <glyph glyph-name="oe" unicode="&#x153;" horiz-adv-x="376" 
d="M165 138q-11 -37 -35 -69.5t-55 -49.5q-11 -15 -24 -22t-28 -7q-13 0 -26 14t-13 55q0 31 11.5 64t28.5 60t38.5 44.5t40.5 17.5q4 0 7 -0.5t7 -1.5q2 1 9 4t14 3q16 0 25 -13t8 -32q6 -1 13.5 -3.5t14.5 -9.5q17 25 41 41.5t46 16.5q24 0 33 -14t9 -30
q0 -34 -27.5 -58.5t-58.5 -24.5q-10 0 -19 1.5t-16 4.5q-2 -10 -3 -22t-1 -25q0 -32 12.5 -45t32.5 -13q28 0 53.5 20t42.5 51q4 0 5.5 -2t2.5 -6q-24 -39 -58.5 -68t-67.5 -29q-25 0 -45.5 17t-20.5 60q0 18 3 35t8 33l2 8q1 3 0 5.5t-3 2.5q-1 0 -2.5 -1t-2.5 -4zM286 234
q-13 0 -32.5 -14.5t-32.5 -46.5q8 -14 20.5 -18.5t18.5 -4.5q19 0 37.5 15t18.5 41q0 12 -7.5 20t-22.5 8zM27 74q0 -22 5.5 -33.5t16.5 -11.5q14 0 29 12t28.5 30.5t25.5 40.5t19 42q2 7 0 9t-4 2q-4 0 -7 -1.5t-11 -1.5q-10 0 -21.5 9t-11.5 30q0 6 1.5 11.5t2.5 10.5
q-10 0 -22.5 -10.5t-23.5 -29.5t-19 -46.5t-8 -62.5zM128 201q0 -7 4 -12.5t10 -5.5q8 0 13.5 4.5t5.5 13.5q0 10 -5.5 15.5t-10.5 5.5t-11 -5.5t-6 -15.5z" />
    <glyph glyph-name="Racute" unicode="&#x154;" 
d="M504 479q3 1 5 0t3 -3q-22 -53 -88 -70t-153 -17q-84 0 -120.5 15.5t-36.5 42.5q0 29 39 65t113.5 70.5t185 63t251.5 41.5q25 22 48 31.5t40 9.5q23 0 34 -10.5t12 -21.5q19 1 39.5 1h40.5q143 0 202 -27.5t59 -75.5q0 -42 -27 -83.5t-72.5 -77t-107 -63t-130.5 -41.5
q-25 -67 -76.5 -119.5t-102.5 -96t-89.5 -82t-38.5 -78.5q0 -32 16 -42t38 -10q41 0 95.5 14t114.5 38q-8 14 -11.5 28.5t-3.5 27.5q0 75 49 141.5t117 115t140.5 76.5t119.5 28q29 0 42.5 -12t13.5 -30q0 -43 -38.5 -95t-100 -102.5t-140 -97t-156.5 -80.5q12 -28 38.5 -40
t65.5 -12q48 0 86.5 15.5t70.5 39.5q3 0 4 -1.5t1 -4.5q-37 -28 -79.5 -44t-82.5 -16q-51 0 -82 15.5t-47 36.5q-60 -24 -116.5 -38t-100.5 -14q-52 0 -72.5 19.5t-20.5 44.5q0 48 35 89.5t82 83.5t95.5 88.5t76.5 104.5q-18 -2 -36 -3t-36 -1q-40 0 -72.5 4t-53.5 17
q-27 -128 -80 -214t-115 -137.5t-125.5 -73.5t-112.5 -22q-54 0 -85 23.5t-31 69.5q0 43 32 100t79.5 107.5t102 86t99.5 35.5q22 0 36 -10t21.5 -24t10 -29t2.5 -26q0 -34 -9.5 -62t-23.5 -50q-2 -4 -6.5 -7t-15.5 0q4 -12 0.5 -18.5t-7.5 -10.5t-9.5 -6t-15.5 5
q-6 -5 -8.5 -11.5t-3.5 -14.5q-8 -4 -16 -7.5t-15 -4.5q-4 1 -5 3t0 6q10 9 25 26t29 40t23.5 51.5t9.5 59.5q0 33 -9 52.5t-28 19.5q-40 0 -90 -33t-93.5 -81t-73.5 -102t-30 -95q0 -40 28 -61t78 -21q40 0 94 16.5t110 66t107.5 142t85.5 242.5q1 3 1.5 6t1.5 6
q-1 4 -1.5 8.5t-0.5 9.5q0 13 5 25.5t15 22.5q25 87 56 142.5t62 86.5q-142 -15 -248.5 -44t-176.5 -62.5t-105 -66.5t-35 -55q0 -13 12.5 -22t32.5 -14.5t46.5 -8t54.5 -2.5q85 0 143.5 14.5t89.5 64.5zM791 718q-17 0 -32 -7.5t-28 -20.5q23 1 47 2.5t49 2.5q-2 9 -10 16
t-26 7zM858 423q0 -21 -3 -40t-9 -38q46 13 85 34.5t74 47.5q6 4 12.5 7t16.5 1q0 11 8 13.5t4 12.5q5 4 11 8t18 3q-3 12 -0.5 18.5t6.5 11.5q4 6 11 7t14 7q-4 15 -2.5 23t3.5 15q3 10 4.5 20t1.5 20q0 47 -41.5 69.5t-154.5 22.5q-52 0 -101.5 -2t-94.5 -6
q-24 -31 -44.5 -79.5t-40.5 -106.5q25 10 53 16.5t57 6.5q53 0 82.5 -25.5t29.5 -66.5zM592 367q-1 -4 -2 -9.5t-2 -9.5q21 -14 54 -17.5t70 -3.5q20 0 39.5 1.5t37.5 4.5q9 21 14 44.5t5 48.5q0 45 -16.5 61.5t-45.5 16.5q-31 0 -61 -8t-55 -21q-9 -26 -18.5 -53t-19.5 -55
zM819 11q0 -13 1.5 -25t4.5 -22q76 33 153 78t138 94t99.5 99t38.5 93q0 14 -11 22.5t-34 8.5q-44 0 -111 -29t-128.5 -77t-106 -111t-44.5 -131zM893 871q2 13 11 17.5t16 4.5q10 0 14.5 -8t4.5 -16t-3.5 -16.5t-7.5 -16.5q-1 -2 -4 -4.5t-12 -2.5q1 -5 -1 -9t-3 -7
q-3 -2 -6.5 -3.5t-7.5 -1.5q1 -7 -2 -9.5t-3 -6.5l-12.5 -12.5l-9.5 -9.5q-3 -2 -5.5 -3t-5.5 -1t-5.5 1.5t-3.5 5.5q2 3 12.5 14.5t19.5 29.5q5 10 9 25.5t5 28.5z" />
    <glyph glyph-name="racute" unicode="&#x155;" 
d="M-29 95q19 22 39 52t31 60q-4 4 -8 13.5t-4 20.5q0 19 7.5 32.5t17.5 13.5q4 0 6 -2t3 -6q0 -1 -1 -4.5t-9 -10.5q6 1 12 -1.5t8 -8.5q7 -10 18.5 -14.5t35.5 -4.5q2 5 8.5 14t13.5 9t11.5 -4t4.5 -11q0 -9 -7 -16t-12 -13q-14 -16 -33.5 -56t-19.5 -82q0 -20 8 -29.5
t21 -9.5q20 0 37 15t32 34q4 0 6 -1.5t2 -5.5q-28 -37 -51 -56t-51 -19q-21 0 -37 12.5t-16 39.5q0 32 19 61.5t47 63.5q7 8 4.5 13.5t-11.5 5.5q-10 0 -23.5 -3t-24.5 1q-10 -21 -32 -52t-43 -58q-4 0 -6 2t-3 5zM191 451q2 13 11 17.5t16 4.5q10 0 14.5 -8t4.5 -16
t-3.5 -16.5t-7.5 -16.5q-1 -2 -4 -4.5t-12 -2.5q1 -5 -1 -9t-3 -7q-3 -2 -6.5 -3.5t-7.5 -1.5q1 -7 -2 -9.5t-3 -6.5l-12.5 -12.5l-9.5 -9.5q-3 -2 -5.5 -3t-5.5 -1t-5.5 1.5t-3.5 5.5q2 3 12.5 14.5t19.5 29.5q5 10 9 25.5t5 28.5z" />
    <glyph glyph-name="Sacute" unicode="&#x15a;" 
d="M758 710q10 0 16.5 -6.5t6.5 -19.5q0 -58 -54 -135t-139 -165q0 -41 -1.5 -100t-12.5 -113q-1 -5 -4 -10t-14 -10q0 -9 1 -15t3 -12q1 -7 -1.5 -12.5t-7.5 -9.5q1 -5 0 -10t-2 -9q-32 -87 -115.5 -140.5t-197.5 -52.5q-33 0 -63 12t-55 32q-50 -49 -96 -98t-84 -96
q-4 0 -6.5 2t-2.5 6q35 44 81.5 93t99.5 100q-32 29 -51 69.5t-19 81.5q0 53 23 99t58.5 79.5t78.5 53t83 19.5q63 -1 99 -29t50 -69q25 23 49 46.5t46 45.5q1 17 1.5 34.5t0.5 36.5q0 64 26.5 119.5t63.5 96t76 63.5t63 23zM588 400v0q80 84 131 158t51 126q0 7 -3 11t-9 4
q-7 0 -34.5 -11t-57.5 -43.5t-54 -91.5t-24 -153zM51 92q0 -32 17 -72t50 -71q63 62 134 127.5t139 129.5q-6 50 -32.5 88t-75.5 38q-43 0 -84.5 -20t-74 -53t-53 -76.5t-20.5 -90.5zM393 174v10t-1 10q-66 -62 -134.5 -125.5t-131.5 -126.5q22 -19 49.5 -30t61.5 -11
q47 0 95.5 20.5t88.5 69t68.5 130t36.5 201.5q-22 -22 -44.5 -44t-45.5 -44q4 -13 5.5 -27.5t1.5 -29.5q0 -8 -3.5 -15t-11.5 -15q5 -7 4.5 -14t-2.5 -13q-2 -7 -10 -12t-9 -12q2 -9 -1 -16t-7 -13q-13 -19 -27.5 -33.5t-25.5 -24.5q-4 -1 -6 0t-3 5q26 38 39 80t13 80z
M586 871q2 13 11 17.5t16 4.5q10 0 14.5 -8t4.5 -16t-3.5 -16.5t-7.5 -16.5q-1 -2 -4 -4.5t-12 -2.5q1 -5 -1 -9t-3 -7q-3 -2 -6.5 -3.5t-7.5 -1.5q1 -7 -2 -9.5t-3 -6.5l-12.5 -12.5l-9.5 -9.5q-3 -2 -5.5 -3t-5.5 -1t-5.5 1.5t-3.5 5.5q2 3 12.5 14.5t19.5 29.5
q5 10 9 25.5t5 28.5z" />
    <glyph glyph-name="sacute" unicode="&#x15b;" 
d="M-52 -1q22 27 42 60t39 65t38.5 62t38.5 51q10 14 26 25t33 17q4 -1 4.5 -4.5t0.5 -6.5q-14 -4 -28.5 -20t-14.5 -36q0 -28 11 -39t19 -29q2 -5 1.5 -10.5t-10.5 -18.5q10 1 13.5 -2.5t3.5 -8.5q0 -4 -2.5 -7.5t-8.5 -8.5q-1 -5 2 -7.5t2 -8.5q-12 -34 -43.5 -58
t-62.5 -24q-28 0 -44 12t-19 32q-9 -13 -17 -24t-15 -18q-4 0 -6 1.5t-3 5.5zM7 22q4 -10 15 -15.5t30 -5.5q30 0 47.5 21.5t17.5 64.5q0 18 -4.5 30t-10 22t-10 20.5t-5.5 26.5q-16 -18 -32 -44l-32 -52q-2 -4 -4.5 -8t-4.5 -8q1 1 2.5 1h2.5q4 -11 13.5 -11.5t9.5 -13.5
q0 -5 -1.5 -8.5t-3.5 -7.5q-10 2 -11 -5.5t-19 -6.5zM197 451q2 13 11 17.5t16 4.5q10 0 14.5 -8t4.5 -16t-3.5 -16.5t-7.5 -16.5q-1 -2 -4 -4.5t-12 -2.5q1 -5 -1 -9t-3 -7q-3 -2 -6.5 -3.5t-7.5 -1.5q1 -7 -2 -9.5t-3 -6.5l-12.5 -12.5l-9.5 -9.5q-3 -2 -5.5 -3t-5.5 -1
t-5.5 1.5t-3.5 5.5q2 3 12.5 14.5t19.5 29.5q5 10 9 25.5t5 28.5z" />
    <glyph glyph-name="Scircumflex" unicode="&#x15c;" 
d="M758 710q10 0 16.5 -6.5t6.5 -19.5q0 -58 -54 -135t-139 -165q0 -41 -1.5 -100t-12.5 -113q-1 -5 -4 -10t-14 -10q0 -9 1 -15t3 -12q1 -7 -1.5 -12.5t-7.5 -9.5q1 -5 0 -10t-2 -9q-32 -87 -115.5 -140.5t-197.5 -52.5q-33 0 -63 12t-55 32q-50 -49 -96 -98t-84 -96
q-4 0 -6.5 2t-2.5 6q35 44 81.5 93t99.5 100q-32 29 -51 69.5t-19 81.5q0 53 23 99t58.5 79.5t78.5 53t83 19.5q63 -1 99 -29t50 -69q25 23 49 46.5t46 45.5q1 17 1.5 34.5t0.5 36.5q0 64 26.5 119.5t63.5 96t76 63.5t63 23zM588 400v0q80 84 131 158t51 126q0 7 -3 11t-9 4
q-7 0 -34.5 -11t-57.5 -43.5t-54 -91.5t-24 -153zM51 92q0 -32 17 -72t50 -71q63 62 134 127.5t139 129.5q-6 50 -32.5 88t-75.5 38q-43 0 -84.5 -20t-74 -53t-53 -76.5t-20.5 -90.5zM393 174v10t-1 10q-66 -62 -134.5 -125.5t-131.5 -126.5q22 -19 49.5 -30t61.5 -11
q47 0 95.5 20.5t88.5 69t68.5 130t36.5 201.5q-22 -22 -44.5 -44t-45.5 -44q4 -13 5.5 -27.5t1.5 -29.5q0 -8 -3.5 -15t-11.5 -15q5 -7 4.5 -14t-2.5 -13q-2 -7 -10 -12t-9 -12q2 -9 -1 -16t-7 -13q-13 -19 -27.5 -33.5t-25.5 -24.5q-4 -1 -6 0t-3 5q26 38 39 80t13 80z
M603 894v-41q0 -32 6 -44t17 -23l-1.5 -5t-12.5 -5q-24 6 -36 24t-16 33q-13 -34 -42.5 -56t-44.5 -27q-4 -6 -7.5 -7.5t-5.5 -1.5q-6 0 -7 2.5t-1 8.5q20 9 37.5 23t30.5 29t23 29t15 23q1 6 2 11t4 10q4 7 10.5 12t16.5 6h8t4 -1z" />
    <glyph glyph-name="scircumflex" unicode="&#x15d;" 
d="M-52 -1q22 27 42 60t39 65t38.5 62t38.5 51q10 14 26 25t33 17q4 -1 4.5 -4.5t0.5 -6.5q-14 -4 -28.5 -20t-14.5 -36q0 -28 11 -39t19 -29q2 -5 1.5 -10.5t-10.5 -18.5q10 1 13.5 -2.5t3.5 -8.5q0 -4 -2.5 -7.5t-8.5 -8.5q-1 -5 2 -7.5t2 -8.5q-12 -34 -43.5 -58
t-62.5 -24q-28 0 -44 12t-19 32q-9 -13 -17 -24t-15 -18q-4 0 -6 1.5t-3 5.5zM7 22q4 -10 15 -15.5t30 -5.5q30 0 47.5 21.5t17.5 64.5q0 18 -4.5 30t-10 22t-10 20.5t-5.5 26.5q-16 -18 -32 -44l-32 -52q-2 -4 -4.5 -8t-4.5 -8q1 1 2.5 1h2.5q4 -11 13.5 -11.5t9.5 -13.5
q0 -5 -1.5 -8.5t-3.5 -7.5q-10 2 -11 -5.5t-19 -6.5zM214 474v-41q0 -32 6 -44t17 -23l-1.5 -5t-12.5 -5q-24 6 -36 24t-16 33q-13 -34 -42.5 -56t-44.5 -27q-4 -6 -7.5 -7.5t-5.5 -1.5q-6 0 -7 2.5t-1 8.5q20 9 37.5 23t30.5 29t23 29t15 23q1 6 2 11t4 10q4 7 10.5 12
t16.5 6h8t4 -1z" />
    <glyph glyph-name="Scedilla" unicode="&#x15e;" 
d="M758 710q10 0 16.5 -6.5t6.5 -19.5q0 -58 -54 -135t-139 -165q0 -41 -1.5 -100t-12.5 -113q-1 -5 -4 -10t-14 -10q0 -9 1 -15t3 -12q1 -7 -1.5 -12.5t-7.5 -9.5q1 -5 0 -10t-2 -9q-32 -87 -115.5 -140.5t-197.5 -52.5q-33 0 -63 12t-55 32q-50 -49 -96 -98t-84 -96
q-4 0 -6.5 2t-2.5 6q35 44 81.5 93t99.5 100q-32 29 -51 69.5t-19 81.5q0 53 23 99t58.5 79.5t78.5 53t83 19.5q63 -1 99 -29t50 -69q25 23 49 46.5t46 45.5q1 17 1.5 34.5t0.5 36.5q0 64 26.5 119.5t63.5 96t76 63.5t63 23zM588 400v0q80 84 131 158t51 126q0 7 -3 11t-9 4
q-7 0 -34.5 -11t-57.5 -43.5t-54 -91.5t-24 -153zM51 92q0 -32 17 -72t50 -71q63 62 134 127.5t139 129.5q-6 50 -32.5 88t-75.5 38q-43 0 -84.5 -20t-74 -53t-53 -76.5t-20.5 -90.5zM393 174v10t-1 10q-66 -62 -134.5 -125.5t-131.5 -126.5q22 -19 49.5 -30t61.5 -11
q47 0 95.5 20.5t88.5 69t68.5 130t36.5 201.5q-22 -22 -44.5 -44t-45.5 -44q4 -13 5.5 -27.5t1.5 -29.5q0 -8 -3.5 -15t-11.5 -15q5 -7 4.5 -14t-2.5 -13q-2 -7 -10 -12t-9 -12q2 -9 -1 -16t-7 -13q-13 -19 -27.5 -33.5t-25.5 -24.5q-4 -1 -6 0t-3 5q26 38 39 80t13 80z
M252 -4h12q0 -7 -7.5 -18t-16.5 -21q5 3 14 6t22 3q26 0 36 -15.5t10 -28.5q0 -27 -19 -41.5t-44 -14.5q-20 0 -33 7.5t-19 16.5l2 4t5 2q4 -4 12 -9.5t21 -5.5q16 0 28 9t12 29q0 16 -10 24.5t-23 8.5q-6 0 -10.5 -1.5t-8.5 -3.5l-2.5 2.5t-3.5 6.5q7 7 13.5 18t9.5 22z
" />
    <glyph glyph-name="scedilla" unicode="&#x15f;" 
d="M-52 -1q22 27 42 60t39 65t38.5 62t38.5 51q10 14 26 25t33 17q4 -1 4.5 -4.5t0.5 -6.5q-14 -4 -28.5 -20t-14.5 -36q0 -28 11 -39t19 -29q2 -5 1.5 -10.5t-10.5 -18.5q10 1 13.5 -2.5t3.5 -8.5q0 -4 -2.5 -7.5t-8.5 -8.5q-1 -5 2 -7.5t2 -8.5q-12 -34 -43.5 -58
t-62.5 -24q-28 0 -44 12t-19 32q-9 -13 -17 -24t-15 -18q-4 0 -6 1.5t-3 5.5zM7 22q4 -10 15 -15.5t30 -5.5q30 0 47.5 21.5t17.5 64.5q0 18 -4.5 30t-10 22t-10 20.5t-5.5 26.5q-16 -18 -32 -44l-32 -52q-2 -4 -4.5 -8t-4.5 -8q1 1 2.5 1h2.5q4 -11 13.5 -11.5t9.5 -13.5
q0 -5 -1.5 -8.5t-3.5 -7.5q-10 2 -11 -5.5t-19 -6.5zM13 -4h12q0 -7 -7.5 -18t-16.5 -21q5 3 14 6t22 3q26 0 36 -15.5t10 -28.5q0 -27 -19 -41.5t-44 -14.5q-20 0 -33 7.5t-19 16.5l2 4t5 2q4 -4 12 -9.5t21 -5.5q16 0 28 9t12 29q0 16 -10 24.5t-23 8.5q-6 0 -10.5 -1.5
t-8.5 -3.5l-2.5 2.5t-3.5 6.5q7 7 13.5 18t9.5 22z" />
    <glyph glyph-name="Wcircumflex" unicode="&#x174;" 
d="M364 612q13 0 17.5 -8.5t4.5 -17.5q0 -22 -35 -92t-84.5 -162t-105.5 -194t-98 -186q26 26 63 88.5t77.5 132.5t83 135t79.5 97q19 26 47.5 65.5t59.5 81.5t62 81.5t54 64.5q5 5 11 8.5t10 3.5t6 -2t2 -6q-14 -7 -35.5 -32t-50.5 -63t-64 -88t-76 -106
q-25 -32 -61.5 -104t-72.5 -149t-66 -145t-41 -92q9 16 34.5 52.5t61 85t79.5 106.5t90 116l50 66t47 64q-1 4 -1 9.5v11.5q0 41 19.5 89t47 89.5t57.5 69t50 27.5q10 0 13.5 -5t3.5 -15t-12 -33t-31.5 -54t-45 -67t-51.5 -73q-1 -7 -1.5 -13.5t-0.5 -12.5q0 -31 17 -46.5
t38 -15.5q24 0 52.5 17t56 44t52 62.5t40.5 72.5q4 2 6 1.5t3 -4.5q-20 -50 -50 -90.5t-63 -68t-66 -42.5t-59 -15q-27 0 -45.5 11.5t-25.5 35.5q-28 -38 -52 -70t-38 -51q-16 -21 -39 -50t-57 -73.5t-81.5 -109t-110.5 -154.5q-10 0 -16 3.5t-6 15.5q5 29 30 87t60.5 126.5
t76.5 140t77 126.5q-54 -65 -93 -128t-73.5 -124.5t-71 -123t-86.5 -123.5q-5 0 -9 3t-4 10q0 9 3 22t8 29q1 4 4.5 8t16.5 5q-9 10 -8 19t5 18q4 10 8.5 20.5t9.5 20.5q34 73 80 158.5t89.5 163.5t78 139.5t44.5 87.5q0 2 -0.5 4.5t-4.5 2.5q-17 -4 -49.5 -30t-65.5 -60.5
t-60.5 -71t-34.5 -61.5q11 6 19 13t18 17q3 1 5 -2t2 -5q-5 -7 -22 -21t-24 -14q-3 0 -6 2.5t-3 6.5q0 22 28 61.5t65.5 78.5t75.5 68t58 29zM579 525q-3 -10 -6 -19t-4 -17q54 75 88.5 130t34.5 70q0 3 -1 6t-5 3q-8 0 -19.5 -10.5t-23.5 -27.5q-3 -4 -6 -9l-6 -10
q-4 6 -6 4.5t-3 -6.5t-1 -10.5t-1 -8.5q-16 -2 -12 -9t1 -13q-16 -2 -12 -10t1 -14q-2 -6 -7.5 -11t-21.5 -5q12 -13 12 -20t-2 -13zM623 894v-41q0 -32 6 -44t17 -23l-1.5 -5t-12.5 -5q-24 6 -36 24t-16 33q-13 -34 -42.5 -56t-44.5 -27q-4 -6 -7.5 -7.5t-5.5 -1.5
q-6 0 -7 2.5t-1 8.5q20 9 37.5 23t30.5 29t23 29t15 23q1 6 2 11t4 10q4 7 10.5 12t16.5 6h8t4 -1z" />
    <glyph glyph-name="wcircumflex" unicode="&#x175;" 
d="M-12 137q12 19 31 43.5t40 45t40 35t31 14.5q10 -1 14 -6.5t5 -12.5q0 -16 -16 -44.5t-37 -65.5q-1 -3 -7 -7t-7 -8q2 -4 -0.5 -9.5t-5.5 -11.5q-2 -4 -4 -7t-6 -6q1 -3 -0.5 -6.5t-2.5 -6.5q-4 -10 -6.5 -21t5.5 -11q7 0 15 11t14 20q9 17 23.5 43.5t31 55t35.5 55
t37 42.5q5 1 7.5 -1t3.5 -6q-9 -16 -23 -43t-27.5 -58.5t-26 -65t-18.5 -64.5q-1 -8 0 -11.5t4 -3.5t9 8.5t14 21.5q22 37 50 89.5t53 106.5q7 13 13.5 19.5t14.5 6.5q7 0 10 -4.5t3 -8.5q1 -6 -2.5 -10t-10.5 -7q2 -9 -3.5 -15t-5.5 -16q0 -14 9 -20t19 -6q13 0 20 5t12 11
q4 -1 5 -2.5t1 -5.5q-9 -12 -19.5 -19t-26.5 -7q-15 0 -28 7.5t-16 24.5q-9 -11 -15 -21.5t-13 -26.5q-4 -11 -15.5 -38.5t-27 -57t-34 -53t-37.5 -26.5q-12 1 -22 7t-10 14q0 7 7 22.5t13 28.5q5 13 1 18.5t-18 -14.5q-6 -10 -15 -23t-18.5 -24.5t-18.5 -19.5t-15 -8
q-10 0 -21.5 5.5t-11.5 15.5q1 8 9 25.5t19 37.5t22.5 40t18.5 33q16 26 28 49.5t16 32.5t1 17t-17 -2q-7 -4 -19 -16t-25 -27.5t-25.5 -32t-19.5 -28.5q-4 -2 -6 -1t-2 5zM275 474v-41q0 -32 6 -44t17 -23l-1.5 -5t-12.5 -5q-24 6 -36 24t-16 33q-13 -34 -42.5 -56
t-44.5 -27q-4 -6 -7.5 -7.5t-5.5 -1.5q-6 0 -7 2.5t-1 8.5q20 9 37.5 23t30.5 29t23 29t15 23q1 6 2 11t4 10q4 7 10.5 12t16.5 6h8t4 -1z" />
    <glyph glyph-name="Ycircumflex" unicode="&#x176;" 
d="M323 672q13 0 26 -10t13 -29q0 -46 -22 -114.5t-50 -141t-54.5 -141t-36.5 -113.5q20 28 42.5 66.5t46.5 80.5t48.5 83.5t47.5 73.5q12 30 29.5 78t37 93.5t40 78.5t39.5 33q7 0 10 -6.5t3 -13.5q0 -32 -20 -57.5t-39 -44.5q-20 -51 -40.5 -114.5t-41 -130.5
t-40.5 -136.5t-39 -134.5q31 28 60 53t54 44q4 -1 5 -2.5t1 -5.5q-28 -22 -60 -49.5t-66 -58.5q-10 -31 -19 -61t-18 -57q-23 -71 -67 -161t-96.5 -169t-107.5 -133.5t-101 -54.5q-19 0 -35 13t-16 44q0 41 36.5 105t94 137.5t130 152t143.5 146.5q2 10 4.5 19.5t3.5 19.5
q8 43 21.5 92.5t28.5 95t29 83.5t22 59q-21 -31 -44.5 -72t-46.5 -80.5t-43.5 -72.5t-35.5 -48q-7 -8 -15 -14.5t-14 -9.5q-7 0 -16 4.5t-13 17.5q4 37 35 104.5t66 141.5t63.5 145t28.5 115q1 18 -6.5 31.5t-17.5 13.5q-28 -14 -58.5 -48t-55.5 -72.5t-41.5 -74
t-16.5 -51.5q0 -4 1.5 -7.5t3.5 -4.5q1 -4 -1.5 -6t-5.5 -2q-4 4 -6.5 8.5t-2.5 11.5q0 21 22 64t52.5 86t64 75.5t56.5 32.5zM487 607q24 24 34 47t11 36q0 3 -0.5 5.5t-1.5 3.5q-6 -1 -11.5 -11t-11 -24t-10.5 -29.5t-10 -27.5zM-132 -526q0 -18 9 -32t31 -14t52 20t64 57
t70 91.5t68 122.5q4 9 11 23t16 9q-6 7 0.5 16.5t-0.5 21.5q7 12 16.5 29t15.5 16q-5 10 -5 15.5t4 15.5t8 22t13 13q-7 7 -3.5 21t6.5 24q4 13 7 26l6 26q-71 -68 -140.5 -144.5t-124.5 -147.5t-89.5 -132t-34.5 -99zM517 894v-41q0 -32 6 -44t17 -23l-1.5 -5t-12.5 -5
q-24 6 -36 24t-16 33q-13 -34 -42.5 -56t-44.5 -27q-4 -6 -7.5 -7.5t-5.5 -1.5q-6 0 -7 2.5t-1 8.5q20 9 37.5 23t30.5 29t23 29t15 23q1 6 2 11t4 10q4 7 10.5 12t16.5 6h8t4 -1z" />
    <glyph glyph-name="ycircumflex" unicode="&#x177;" 
d="M63 213q3 0 7.5 -1.5t11.5 -5.5q-6 -10 -11 -18.5t-10 -18.5q-3 -6 -7 -12t-14 -11q12 -2 10 -12.5t-4 -20.5q-4 -18 -6 -31t-2 -27q0 -20 7.5 -25t14.5 -5t15.5 3.5t16.5 10.5q9 7 14.5 17t7.5 20q10 54 23.5 95.5t29.5 41.5q12 1 18.5 -6t9.5 -12q-9 -16 -30 -72.5
t-32 -131.5q-1 -11 -3 -22l-4 -22q17 13 31 28t24 31q4 1 7 -0.5t3 -4.5q-13 -22 -30 -38.5t-39 -32.5q-6 -29 -14 -57.5t-18 -53.5q-4 -4 -6.5 -8.5t-7.5 -10.5q-1 -16 -4 -24.5t-6 -15.5q-4 -8 -11.5 -14t-10.5 -17q1 -5 -1 -11.5t-6 -11.5q-13 -21 -26.5 -33t-24.5 -12
q-9 0 -15 8.5t-6 33.5q0 51 21 105t75 92q7 4 13.5 9.5t13.5 9.5q6 34 11.5 67t7.5 42q1 7 -1 8t-6 -4q-10 -11 -28.5 -26.5t-35.5 -15.5t-31 10.5t-14 41.5q0 32 17.5 76t35.5 76q4 7 8 13t11 6zM-24 -297q0 -16 2 -23.5t9 -7.5q11 0 25 20.5t27.5 53.5t26 75t19.5 83
q-4 -3 -8.5 -6t-8.5 -6q-28 -20 -46.5 -45t-28.5 -50q-1 -3 -3 -6t-8 -7q4 -1 4 -3.5v-5.5q-1 -2 -3 -5t-1 -6q-4 -16 -5 -32t-1 -29zM232 474v-41q0 -32 6 -44t17 -23l-1.5 -5t-12.5 -5q-24 6 -36 24t-16 33q-13 -34 -42.5 -56t-44.5 -27q-4 -6 -7.5 -7.5t-5.5 -1.5
q-6 0 -7 2.5t-1 8.5q20 9 37.5 23t30.5 29t23 29t15 23q1 6 2 11t4 10q4 7 10.5 12t16.5 6h8t4 -1z" />
    <glyph glyph-name="Ydieresis" unicode="&#x178;" horiz-adv-x="534" 
d="M323 672q13 0 26 -10t13 -29q0 -46 -22 -114.5t-50 -141t-54.5 -141t-36.5 -113.5q20 28 42.5 66.5t46.5 80.5t48.5 83.5t47.5 73.5q12 30 29.5 78t37 93.5t40 78.5t39.5 33q7 0 10 -6.5t3 -13.5q0 -32 -20 -57.5t-39 -44.5q-20 -51 -40.5 -114.5t-41 -130.5
t-40.5 -136.5t-39 -134.5q31 28 60 53t54 44q4 -1 5 -2.5t1 -5.5q-28 -22 -60 -49.5t-66 -58.5q-10 -31 -19 -61t-18 -57q-23 -71 -67 -161t-96.5 -169t-107.5 -133.5t-101 -54.5q-19 0 -35 13t-16 44q0 41 36.5 105t94 137.5t130 152t143.5 146.5q2 10 4.5 19.5t3.5 19.5
q8 43 21.5 92.5t28.5 95t29 83.5t22 59q-21 -31 -44.5 -72t-46.5 -80.5t-43.5 -72.5t-35.5 -48q-7 -8 -15 -14.5t-14 -9.5q-7 0 -16 4.5t-13 17.5q4 37 35 104.5t66 141.5t63.5 145t28.5 115q1 18 -6.5 31.5t-17.5 13.5q-28 -14 -58.5 -48t-55.5 -72.5t-41.5 -74
t-16.5 -51.5q0 -4 1.5 -7.5t3.5 -4.5q1 -4 -1.5 -6t-5.5 -2q-4 4 -6.5 8.5t-2.5 11.5q0 21 22 64t52.5 86t64 75.5t56.5 32.5zM487 607q24 24 34 47t11 36q0 3 -0.5 5.5t-1.5 3.5q-6 -1 -11.5 -11t-11 -24t-10.5 -29.5t-10 -27.5zM-132 -526q0 -18 9 -32t31 -14t52 20t64 57
t70 91.5t68 122.5q4 9 11 23t16 9q-6 7 0.5 16.5t-0.5 21.5q7 12 16.5 29t15.5 16q-5 10 -5 15.5t4 15.5t8 22t13 13q-7 7 -3.5 21t6.5 24q4 13 7 26l6 26q-71 -68 -140.5 -144.5t-124.5 -147.5t-89.5 -132t-34.5 -99zM475 839q0 16 12 35t32 19q5 0 8 -2.5t1 -5.5
q-11 0 -15 -9.5t-4 -16.5q0 -8 3 -15.5t10 -11.5q0 -9 -6 -16.5t-17 -7.5q-13 0 -18.5 9t-5.5 22zM420 870q12 0 16 -6.5t4 -14.5q0 -13 -6.5 -20t-6.5 -20q0 -6 2.5 -10t9.5 -4q5 0 9.5 4t5.5 11q4 1 6.5 1t2.5 -6q-4 -13 -16 -22.5t-25 -9.5t-22.5 11t-9.5 32q0 14 7 32
t23 22z" />
    <glyph glyph-name="Zacute" unicode="&#x179;" 
d="M363 -361q-31 -46 -67 -85t-71 -67.5t-67 -44.5t-55 -16q-20 0 -35 10t-15 37q0 40 35 91.5t91 104.5t126 103.5t139 89.5q22 57 34.5 114.5t12.5 111.5q0 13 -1.5 29.5t-6 31t-13.5 24.5t-23 10q-27 0 -55.5 -15t-54 -37t-45.5 -47t-29 -44q-9 -4 -17 0.5t-7 17.5
q51 47 86 90.5t60.5 88.5t45 95t40.5 111q10 28 19 54.5t18 51.5q-31 -12 -70.5 -24.5t-89.5 -24.5q-28 -7 -52.5 -14t-45.5 -14q-5 -1 -11 3t-13 -6q-2 -5 -7 -8t-11 -5q-6 -3 -13.5 -3.5t-23.5 7.5q3 -15 -2 -20t-10 -9q-34 -21 -46.5 -41t-12.5 -35q0 -36 22 -54t59 -18
q38 0 73.5 23.5t54.5 70.5q3 1 6 0.5t4 -4.5q0 -21 -14 -39.5t-35 -32t-45 -21.5t-44 -8q-46 0 -71 26t-25 56q0 20 6.5 48t33 55.5t80.5 51t149 34.5q48 5 91 16.5t77 25.5q21 51 42.5 84t46.5 33q18 0 25 -11t7 -27q0 -22 -24.5 -49.5t-90.5 -56.5q-8 -23 -17 -49.5
t-19 -56.5q-18 -52 -33.5 -93t-32.5 -76t-37 -67.5t-47 -67.5q34 37 69.5 53.5t58.5 16.5q37 0 53.5 -35.5t16.5 -93.5q0 -50 -12 -101t-31 -99q23 12 45.5 21.5t42.5 16.5q5 -1 6.5 -4t-2.5 -8q-22 -7 -47.5 -18t-51.5 -24q-5 -12 -11 -23.5t-12 -22.5q-4 -8 -9 -15.5
t-14 -15.5q2 -7 0 -15t-3 -15q-2 -7 -8 -15.5t-13 -15.5q-6 -7 -11 -16t-2 -18q-6 -5 -11 -11.5t-15 -13.5q2 -8 -6 -19t-12 -18zM611 690q-18 0 -34.5 -25t-34.5 -71q40 19 62.5 40t22.5 40q0 8 -5 12t-11 4zM64 -527q0 -19 11 -27.5t28 -8.5q31 0 75.5 34t91 90t91 130.5
t76.5 153.5q-66 -38 -133 -87t-120 -100t-86.5 -99.5t-33.5 -85.5zM559 871q2 13 11 17.5t16 4.5q10 0 14.5 -8t4.5 -16t-3.5 -16.5t-7.5 -16.5q-1 -2 -4 -4.5t-12 -2.5q1 -5 -1 -9t-3 -7q-3 -2 -6.5 -3.5t-7.5 -1.5q1 -7 -2 -9.5t-3 -6.5l-12.5 -12.5l-9.5 -9.5
q-3 -2 -5.5 -3t-5.5 -1t-5.5 1.5t-3.5 5.5q2 3 12.5 14.5t19.5 29.5q5 10 9 25.5t5 28.5z" />
    <glyph glyph-name="zacute" unicode="&#x17a;" 
d="M-26 69q13 17 32 51t32 68q-3 5 -4 10.5t-1 15.5q0 19 15 50.5t34 50.5q7 0 10.5 -4.5t3.5 -14.5q-4 -4 -7.5 -8t-6.5 -8q1 -14 -6 -25.5t-7 -19.5t3 -15t7 -9q17 6 34 8.5t28 3.5q7 18 17 31.5t17 14.5q7 -4 7.5 -11t-6.5 -23q-13 -30 -39 -72t-43 -69
q-6 -10 -3.5 -13.5t11.5 1.5q13 8 22.5 10.5t19.5 2.5q18 0 30.5 -21t12.5 -51q0 -5 -0.5 -10t-0.5 -10q19 7 32.5 13.5t17.5 9.5q3 0 4.5 -2t0.5 -5q-10 -5 -24.5 -12t-32.5 -14q-8 -41 -34 -86t-59 -82t-69 -61t-65 -24q-31 0 -48 16.5t-17 38.5q0 34 35.5 63t88.5 63
q27 17 61 33.5t66 30.5q1 7 1.5 15t0.5 16q0 12 -2.5 33.5t-20.5 21.5q-5 0 -14 -2.5t-16 -13.5q-5 -4 -10 -6t-13 -2t-13 2.5t-6 6.5q0 13 16.5 38t28.5 44q10 16 16.5 27t10.5 19q6 12 5.5 16t-5.5 4q-4 0 -14.5 -2t-20.5 -5q-8 -9 -19.5 -13t-18.5 -3q-6 -14 -15.5 -32.5
t-19.5 -36t-19 -31.5t-12 -18q-3 0 -5.5 1.5t-3.5 4.5zM-97 -205q0 -13 11 -28.5t43 -15.5q22 0 51 18t56 48t48.5 70.5t28.5 86.5q-31 -14 -63.5 -30t-56.5 -31q-49 -31 -83.5 -59t-34.5 -59zM208 451q2 13 11 17.5t16 4.5q10 0 14.5 -8t4.5 -16t-3.5 -16.5t-7.5 -16.5
q-1 -2 -4 -4.5t-12 -2.5q1 -5 -1 -9t-3 -7q-3 -2 -6.5 -3.5t-7.5 -1.5q1 -7 -2 -9.5t-3 -6.5l-12.5 -12.5l-9.5 -9.5q-3 -2 -5.5 -3t-5.5 -1t-5.5 1.5t-3.5 5.5q2 3 12.5 14.5t19.5 29.5q5 10 9 25.5t5 28.5z" />
    <glyph glyph-name="Aringacute" unicode="&#x1fa;" 
d="M464 87q3 84 40 155.5t88 122t107 79t96 28.5t54 -22.5t14 -54.5q0 -65 -27.5 -127.5t-70 -116.5t-96.5 -98.5t-106 -74.5q23 -21 57.5 -31.5t80.5 -10.5q54 0 111 24.5t93 86.5q2 1 4.5 -0.5t2.5 -4.5q-11 -25 -36 -52t-58.5 -49t-74.5 -36.5t-83 -14.5q-55 0 -93 16.5
t-61 43.5q-26 -10 -49 -16t-42 -6q-57 0 -80.5 28t-23.5 64q0 39 18.5 87.5t46 97.5t60.5 95.5t61 83.5q25 40 52 77t53 70q-29 -13 -61.5 -31.5t-67.5 -44.5q-16 -11 -32.5 -23.5t-33.5 -25.5q-72 -103 -131 -197.5t-130 -169.5q-30 -31 -61 -60t-68 -29q-6 0 -13 2t-11 6
q0 3 2 5.5t5 3.5q2 -2 6 -3.5t11 -1.5q31 0 60.5 26.5t60.5 59.5q58 63 115.5 150t126.5 188q-47 -36 -97 -74.5t-98.5 -74.5t-94.5 -67t-85 -51q-4 0 -6 3.5t-1 7.5q39 19 88.5 51.5t102 71.5t107 81.5t104.5 80.5q43 61 95 115t101 94t89 63t58 23q5 0 8.5 -2t4.5 -6
q1 -5 -29 -39.5t-73 -86.5q44 19 83.5 27t75.5 8q6 0 10.5 -0.5t11.5 -1.5q2 -10 7.5 -12t12 -0.5t12.5 3.5t10 -1q4 -9 8 -6.5t6 3.5q4 -1 7.5 -5t8.5 -17q1 10 4.5 10.5t6.5 -1.5q31 -19 45.5 -53.5t14.5 -68.5q0 -9 -1 -17t-2 -14q-2 0 -3.5 0.5t-2.5 1.5q0 22 -5.5 46.5
t-22.5 45t-49.5 34t-85.5 13.5q-43 0 -87.5 -5.5t-93.5 -24.5q-29 -37 -59.5 -79t-56.5 -87q-64 -107 -107 -192.5t-43 -151.5q0 -31 17 -50t61 -19q13 0 27 2t28 6q-15 25 -21.5 55.5t-6.5 61.5zM737 698q-14 0 -49 -21t-78.5 -56t-91.5 -83t-89 -101q10 7 19 14t18 13
q45 34 85.5 59t77.5 42q47 57 80 92.5t32 38.5q0 1 -1 1.5t-3 0.5zM513 117q0 -40 9 -71.5t28 -53.5q54 26 108.5 71.5t97 100t69.5 114.5t27 117q0 33 -13.5 49.5t-43.5 16.5q-34 0 -82.5 -24t-93 -68t-75.5 -108.5t-31 -143.5zM735 871q2 13 11 17.5t16 4.5q10 0 14.5 -8
t4.5 -16t-3.5 -16.5t-7.5 -16.5q-1 -2 -4 -4.5t-12 -2.5q1 -5 -1 -9t-3 -7q-3 -2 -6.5 -3.5t-7.5 -1.5q1 -7 -2 -9.5t-3 -6.5l-12.5 -12.5l-9.5 -9.5q-3 -2 -5.5 -3t-5.5 -1t-5.5 1.5t-3.5 5.5q2 3 12.5 14.5t19.5 29.5q5 10 9 25.5t5 28.5z" />
    <glyph glyph-name="aringacute" unicode="&#x1fb;" 
d="M257 69q-13 -21 -33 -43t-48 -22q-19 0 -33 12t-14 34q0 12 -3.5 16.5t-13.5 -5.5q-7 -6 -17 -16t-21.5 -19t-22.5 -15.5t-19 -6.5q-18 0 -27 16.5t-9 40.5q0 33 14 67.5t36 63t48 46.5t50 18q20 0 28 -10t8 -24v-2q4 11 7.5 19.5t7.5 12.5q4 2 7 3t7 1t9.5 -1t9.5 -4
q-2 -19 -7.5 -37t-12.5 -35q-10 -5 -9 -8.5t2 -7.5q-3 -5 -7 -11t-14 -12q6 -4 5 -9.5t-3 -9.5q-6 -13 -9.5 -26t-3.5 -24q0 -16 8.5 -23.5t21.5 -7.5q10 0 23.5 8t26.5 27q3 0 5 -1.5t3 -4.5zM38 104q7 -4 8.5 -10.5t-2.5 -16.5q0 -18 3.5 -27t14.5 -9q13 0 40.5 25
t50.5 66q5 18 10.5 35.5t9.5 33.5q-7 -10 -17.5 -17t-19.5 -11q-3 2 -4 5t-1 5q12 4 23.5 14.5t11.5 24.5q0 8 -5 15.5t-17 7.5q-14 0 -29.5 -11t-29.5 -29q-3 -4 -7.5 -9.5t-11.5 -11.5q-5 -14 -2 -25t-3 -20q-5 -10 -10.5 -17t-12.5 -18zM236 451q2 13 11 17.5t16 4.5
q10 0 14.5 -8t4.5 -16t-3.5 -16.5t-7.5 -16.5q-1 -2 -4 -4.5t-12 -2.5q1 -5 -1 -9t-3 -7q-3 -2 -6.5 -3.5t-7.5 -1.5q1 -7 -2 -9.5t-3 -6.5l-12.5 -12.5l-9.5 -9.5q-3 -2 -5.5 -3t-5.5 -1t-5.5 1.5t-3.5 5.5q2 3 12.5 14.5t19.5 29.5q5 10 9 25.5t5 28.5z" />
    <glyph glyph-name="circumflex" unicode="&#x2c6;" horiz-adv-x="250" 
d="M234 474v-41q0 -32 6 -44t17 -23l-1.5 -5t-12.5 -5q-24 6 -36 24t-16 33q-13 -34 -42.5 -56t-44.5 -27q-4 -6 -7.5 -7.5t-5.5 -1.5q-6 0 -7 2.5t-1 8.5q20 9 37.5 23t30.5 29t23 29t15 23q1 6 2 11t4 10q4 7 10.5 12t16.5 6h8t4 -1z" />
    <glyph glyph-name="Wgrave" unicode="&#x1e80;" 
d="M364 612q13 0 17.5 -8.5t4.5 -17.5q0 -22 -35 -92t-84.5 -162t-105.5 -194t-98 -186q26 26 63 88.5t77.5 132.5t83 135t79.5 97q19 26 47.5 65.5t59.5 81.5t62 81.5t54 64.5q5 5 11 8.5t10 3.5t6 -2t2 -6q-14 -7 -35.5 -32t-50.5 -63t-64 -88t-76 -106
q-25 -32 -61.5 -104t-72.5 -149t-66 -145t-41 -92q9 16 34.5 52.5t61 85t79.5 106.5t90 116l50 66t47 64q-1 4 -1 9.5v11.5q0 41 19.5 89t47 89.5t57.5 69t50 27.5q10 0 13.5 -5t3.5 -15t-12 -33t-31.5 -54t-45 -67t-51.5 -73q-1 -7 -1.5 -13.5t-0.5 -12.5q0 -31 17 -46.5
t38 -15.5q24 0 52.5 17t56 44t52 62.5t40.5 72.5q4 2 6 1.5t3 -4.5q-20 -50 -50 -90.5t-63 -68t-66 -42.5t-59 -15q-27 0 -45.5 11.5t-25.5 35.5q-28 -38 -52 -70t-38 -51q-16 -21 -39 -50t-57 -73.5t-81.5 -109t-110.5 -154.5q-10 0 -16 3.5t-6 15.5q5 29 30 87t60.5 126.5
t76.5 140t77 126.5q-54 -65 -93 -128t-73.5 -124.5t-71 -123t-86.5 -123.5q-5 0 -9 3t-4 10q0 9 3 22t8 29q1 4 4.5 8t16.5 5q-9 10 -8 19t5 18q4 10 8.5 20.5t9.5 20.5q34 73 80 158.5t89.5 163.5t78 139.5t44.5 87.5q0 2 -0.5 4.5t-4.5 2.5q-17 -4 -49.5 -30t-65.5 -60.5
t-60.5 -71t-34.5 -61.5q11 6 19 13t18 17q3 1 5 -2t2 -5q-5 -7 -22 -21t-24 -14q-3 0 -6 2.5t-3 6.5q0 22 28 61.5t65.5 78.5t75.5 68t58 29zM579 525q-3 -10 -6 -19t-4 -17q54 75 88.5 130t34.5 70q0 3 -1 6t-5 3q-8 0 -19.5 -10.5t-23.5 -27.5q-3 -4 -6 -9l-6 -10
q-4 6 -6 4.5t-3 -6.5t-1 -10.5t-1 -8.5q-16 -2 -12 -9t1 -13q-16 -2 -12 -10t1 -14q-2 -6 -7.5 -11t-21.5 -5q12 -13 12 -20t-2 -13zM581 897q10 0 16.5 -7t6.5 -21q-2 -10 -4 -18t-2 -16q0 -12 5.5 -29t12.5 -30q-1 -5 -3 -6.5t-9 -1.5q-13 13 -31 41.5t-18 53.5q0 16 8 25
t18 9z" />
    <glyph glyph-name="wgrave" unicode="&#x1e81;" 
d="M-12 137q12 19 31 43.5t40 45t40 35t31 14.5q10 -1 14 -6.5t5 -12.5q0 -16 -16 -44.5t-37 -65.5q-1 -3 -7 -7t-7 -8q2 -4 -0.5 -9.5t-5.5 -11.5q-2 -4 -4 -7t-6 -6q1 -3 -0.5 -6.5t-2.5 -6.5q-4 -10 -6.5 -21t5.5 -11q7 0 15 11t14 20q9 17 23.5 43.5t31 55t35.5 55
t37 42.5q5 1 7.5 -1t3.5 -6q-9 -16 -23 -43t-27.5 -58.5t-26 -65t-18.5 -64.5q-1 -8 0 -11.5t4 -3.5t9 8.5t14 21.5q22 37 50 89.5t53 106.5q7 13 13.5 19.5t14.5 6.5q7 0 10 -4.5t3 -8.5q1 -6 -2.5 -10t-10.5 -7q2 -9 -3.5 -15t-5.5 -16q0 -14 9 -20t19 -6q13 0 20 5t12 11
q4 -1 5 -2.5t1 -5.5q-9 -12 -19.5 -19t-26.5 -7q-15 0 -28 7.5t-16 24.5q-9 -11 -15 -21.5t-13 -26.5q-4 -11 -15.5 -38.5t-27 -57t-34 -53t-37.5 -26.5q-12 1 -22 7t-10 14q0 7 7 22.5t13 28.5q5 13 1 18.5t-18 -14.5q-6 -10 -15 -23t-18.5 -24.5t-18.5 -19.5t-15 -8
q-10 0 -21.5 5.5t-11.5 15.5q1 8 9 25.5t19 37.5t22.5 40t18.5 33q16 26 28 49.5t16 32.5t1 17t-17 -2q-7 -4 -19 -16t-25 -27.5t-25.5 -32t-19.5 -28.5q-4 -2 -6 -1t-2 5zM233 477q10 0 16.5 -7t6.5 -21q-2 -10 -4 -18t-2 -16q0 -12 5.5 -29t12.5 -30q-1 -5 -3 -6.5
t-9 -1.5q-13 13 -31 41.5t-18 53.5q0 16 8 25t18 9z" />
    <glyph glyph-name="Wacute" unicode="&#x1e82;" 
d="M364 612q13 0 17.5 -8.5t4.5 -17.5q0 -22 -35 -92t-84.5 -162t-105.5 -194t-98 -186q26 26 63 88.5t77.5 132.5t83 135t79.5 97q19 26 47.5 65.5t59.5 81.5t62 81.5t54 64.5q5 5 11 8.5t10 3.5t6 -2t2 -6q-14 -7 -35.5 -32t-50.5 -63t-64 -88t-76 -106
q-25 -32 -61.5 -104t-72.5 -149t-66 -145t-41 -92q9 16 34.5 52.5t61 85t79.5 106.5t90 116l50 66t47 64q-1 4 -1 9.5v11.5q0 41 19.5 89t47 89.5t57.5 69t50 27.5q10 0 13.5 -5t3.5 -15t-12 -33t-31.5 -54t-45 -67t-51.5 -73q-1 -7 -1.5 -13.5t-0.5 -12.5q0 -31 17 -46.5
t38 -15.5q24 0 52.5 17t56 44t52 62.5t40.5 72.5q4 2 6 1.5t3 -4.5q-20 -50 -50 -90.5t-63 -68t-66 -42.5t-59 -15q-27 0 -45.5 11.5t-25.5 35.5q-28 -38 -52 -70t-38 -51q-16 -21 -39 -50t-57 -73.5t-81.5 -109t-110.5 -154.5q-10 0 -16 3.5t-6 15.5q5 29 30 87t60.5 126.5
t76.5 140t77 126.5q-54 -65 -93 -128t-73.5 -124.5t-71 -123t-86.5 -123.5q-5 0 -9 3t-4 10q0 9 3 22t8 29q1 4 4.5 8t16.5 5q-9 10 -8 19t5 18q4 10 8.5 20.5t9.5 20.5q34 73 80 158.5t89.5 163.5t78 139.5t44.5 87.5q0 2 -0.5 4.5t-4.5 2.5q-17 -4 -49.5 -30t-65.5 -60.5
t-60.5 -71t-34.5 -61.5q11 6 19 13t18 17q3 1 5 -2t2 -5q-5 -7 -22 -21t-24 -14q-3 0 -6 2.5t-3 6.5q0 22 28 61.5t65.5 78.5t75.5 68t58 29zM579 525q-3 -10 -6 -19t-4 -17q54 75 88.5 130t34.5 70q0 3 -1 6t-5 3q-8 0 -19.5 -10.5t-23.5 -27.5q-3 -4 -6 -9l-6 -10
q-4 6 -6 4.5t-3 -6.5t-1 -10.5t-1 -8.5q-16 -2 -12 -9t1 -13q-16 -2 -12 -10t1 -14q-2 -6 -7.5 -11t-21.5 -5q12 -13 12 -20t-2 -13zM606 871q2 13 11 17.5t16 4.5q10 0 14.5 -8t4.5 -16t-3.5 -16.5t-7.5 -16.5q-1 -2 -4 -4.5t-12 -2.5q1 -5 -1 -9t-3 -7q-3 -2 -6.5 -3.5
t-7.5 -1.5q1 -7 -2 -9.5t-3 -6.5l-12.5 -12.5l-9.5 -9.5q-3 -2 -5.5 -3t-5.5 -1t-5.5 1.5t-3.5 5.5q2 3 12.5 14.5t19.5 29.5q5 10 9 25.5t5 28.5z" />
    <glyph glyph-name="wacute" unicode="&#x1e83;" 
d="M-12 137q12 19 31 43.5t40 45t40 35t31 14.5q10 -1 14 -6.5t5 -12.5q0 -16 -16 -44.5t-37 -65.5q-1 -3 -7 -7t-7 -8q2 -4 -0.5 -9.5t-5.5 -11.5q-2 -4 -4 -7t-6 -6q1 -3 -0.5 -6.5t-2.5 -6.5q-4 -10 -6.5 -21t5.5 -11q7 0 15 11t14 20q9 17 23.5 43.5t31 55t35.5 55
t37 42.5q5 1 7.5 -1t3.5 -6q-9 -16 -23 -43t-27.5 -58.5t-26 -65t-18.5 -64.5q-1 -8 0 -11.5t4 -3.5t9 8.5t14 21.5q22 37 50 89.5t53 106.5q7 13 13.5 19.5t14.5 6.5q7 0 10 -4.5t3 -8.5q1 -6 -2.5 -10t-10.5 -7q2 -9 -3.5 -15t-5.5 -16q0 -14 9 -20t19 -6q13 0 20 5t12 11
q4 -1 5 -2.5t1 -5.5q-9 -12 -19.5 -19t-26.5 -7q-15 0 -28 7.5t-16 24.5q-9 -11 -15 -21.5t-13 -26.5q-4 -11 -15.5 -38.5t-27 -57t-34 -53t-37.5 -26.5q-12 1 -22 7t-10 14q0 7 7 22.5t13 28.5q5 13 1 18.5t-18 -14.5q-6 -10 -15 -23t-18.5 -24.5t-18.5 -19.5t-15 -8
q-10 0 -21.5 5.5t-11.5 15.5q1 8 9 25.5t19 37.5t22.5 40t18.5 33q16 26 28 49.5t16 32.5t1 17t-17 -2q-7 -4 -19 -16t-25 -27.5t-25.5 -32t-19.5 -28.5q-4 -2 -6 -1t-2 5zM258 451q2 13 11 17.5t16 4.5q10 0 14.5 -8t4.5 -16t-3.5 -16.5t-7.5 -16.5q-1 -2 -4 -4.5t-12 -2.5
q1 -5 -1 -9t-3 -7q-3 -2 -6.5 -3.5t-7.5 -1.5q1 -7 -2 -9.5t-3 -6.5l-12.5 -12.5l-9.5 -9.5q-3 -2 -5.5 -3t-5.5 -1t-5.5 1.5t-3.5 5.5q2 3 12.5 14.5t19.5 29.5q5 10 9 25.5t5 28.5z" />
    <glyph glyph-name="Wdieresis" unicode="&#x1e84;" 
d="M364 612q13 0 17.5 -8.5t4.5 -17.5q0 -22 -35 -92t-84.5 -162t-105.5 -194t-98 -186q26 26 63 88.5t77.5 132.5t83 135t79.5 97q19 26 47.5 65.5t59.5 81.5t62 81.5t54 64.5q5 5 11 8.5t10 3.5t6 -2t2 -6q-14 -7 -35.5 -32t-50.5 -63t-64 -88t-76 -106
q-25 -32 -61.5 -104t-72.5 -149t-66 -145t-41 -92q9 16 34.5 52.5t61 85t79.5 106.5t90 116l50 66t47 64q-1 4 -1 9.5v11.5q0 41 19.5 89t47 89.5t57.5 69t50 27.5q10 0 13.5 -5t3.5 -15t-12 -33t-31.5 -54t-45 -67t-51.5 -73q-1 -7 -1.5 -13.5t-0.5 -12.5q0 -31 17 -46.5
t38 -15.5q24 0 52.5 17t56 44t52 62.5t40.5 72.5q4 2 6 1.5t3 -4.5q-20 -50 -50 -90.5t-63 -68t-66 -42.5t-59 -15q-27 0 -45.5 11.5t-25.5 35.5q-28 -38 -52 -70t-38 -51q-16 -21 -39 -50t-57 -73.5t-81.5 -109t-110.5 -154.5q-10 0 -16 3.5t-6 15.5q5 29 30 87t60.5 126.5
t76.5 140t77 126.5q-54 -65 -93 -128t-73.5 -124.5t-71 -123t-86.5 -123.5q-5 0 -9 3t-4 10q0 9 3 22t8 29q1 4 4.5 8t16.5 5q-9 10 -8 19t5 18q4 10 8.5 20.5t9.5 20.5q34 73 80 158.5t89.5 163.5t78 139.5t44.5 87.5q0 2 -0.5 4.5t-4.5 2.5q-17 -4 -49.5 -30t-65.5 -60.5
t-60.5 -71t-34.5 -61.5q11 6 19 13t18 17q3 1 5 -2t2 -5q-5 -7 -22 -21t-24 -14q-3 0 -6 2.5t-3 6.5q0 22 28 61.5t65.5 78.5t75.5 68t58 29zM579 525q-3 -10 -6 -19t-4 -17q54 75 88.5 130t34.5 70q0 3 -1 6t-5 3q-8 0 -19.5 -10.5t-23.5 -27.5q-3 -4 -6 -9l-6 -10
q-4 6 -6 4.5t-3 -6.5t-1 -10.5t-1 -8.5q-16 -2 -12 -9t1 -13q-16 -2 -12 -10t1 -14q-2 -6 -7.5 -11t-21.5 -5q12 -13 12 -20t-2 -13zM606 839q0 16 12 35t32 19q5 0 8 -2.5t1 -5.5q-11 0 -15 -9.5t-4 -16.5q0 -8 3 -15.5t10 -11.5q0 -9 -6 -16.5t-17 -7.5q-13 0 -18.5 9
t-5.5 22zM551 870q12 0 16 -6.5t4 -14.5q0 -13 -6.5 -20t-6.5 -20q0 -6 2.5 -10t9.5 -4q5 0 9.5 4t5.5 11q4 1 6.5 1t2.5 -6q-4 -13 -16 -22.5t-25 -9.5t-22.5 11t-9.5 32q0 14 7 32t23 22z" />
    <glyph glyph-name="wdieresis" unicode="&#x1e85;" 
d="M-12 137q12 19 31 43.5t40 45t40 35t31 14.5q10 -1 14 -6.5t5 -12.5q0 -16 -16 -44.5t-37 -65.5q-1 -3 -7 -7t-7 -8q2 -4 -0.5 -9.5t-5.5 -11.5q-2 -4 -4 -7t-6 -6q1 -3 -0.5 -6.5t-2.5 -6.5q-4 -10 -6.5 -21t5.5 -11q7 0 15 11t14 20q9 17 23.5 43.5t31 55t35.5 55
t37 42.5q5 1 7.5 -1t3.5 -6q-9 -16 -23 -43t-27.5 -58.5t-26 -65t-18.5 -64.5q-1 -8 0 -11.5t4 -3.5t9 8.5t14 21.5q22 37 50 89.5t53 106.5q7 13 13.5 19.5t14.5 6.5q7 0 10 -4.5t3 -8.5q1 -6 -2.5 -10t-10.5 -7q2 -9 -3.5 -15t-5.5 -16q0 -14 9 -20t19 -6q13 0 20 5t12 11
q4 -1 5 -2.5t1 -5.5q-9 -12 -19.5 -19t-26.5 -7q-15 0 -28 7.5t-16 24.5q-9 -11 -15 -21.5t-13 -26.5q-4 -11 -15.5 -38.5t-27 -57t-34 -53t-37.5 -26.5q-12 1 -22 7t-10 14q0 7 7 22.5t13 28.5q5 13 1 18.5t-18 -14.5q-6 -10 -15 -23t-18.5 -24.5t-18.5 -19.5t-15 -8
q-10 0 -21.5 5.5t-11.5 15.5q1 8 9 25.5t19 37.5t22.5 40t18.5 33q16 26 28 49.5t16 32.5t1 17t-17 -2q-7 -4 -19 -16t-25 -27.5t-25.5 -32t-19.5 -28.5q-4 -2 -6 -1t-2 5zM258 419q0 16 12 35t32 19q5 0 8 -2.5t1 -5.5q-11 0 -15 -9.5t-4 -16.5q0 -8 3 -15.5t10 -11.5
q0 -9 -6 -16.5t-17 -7.5q-13 0 -18.5 9t-5.5 22zM203 450q12 0 16 -6.5t4 -14.5q0 -13 -6.5 -20t-6.5 -20q0 -6 2.5 -10t9.5 -4q5 0 9.5 4t5.5 11q4 1 6.5 1t2.5 -6q-4 -13 -16 -22.5t-25 -9.5t-22.5 11t-9.5 32q0 14 7 32t23 22z" />
    <glyph glyph-name="Ygrave" unicode="&#x1ef2;" 
d="M323 672q13 0 26 -10t13 -29q0 -46 -22 -114.5t-50 -141t-54.5 -141t-36.5 -113.5q20 28 42.5 66.5t46.5 80.5t48.5 83.5t47.5 73.5q12 30 29.5 78t37 93.5t40 78.5t39.5 33q7 0 10 -6.5t3 -13.5q0 -32 -20 -57.5t-39 -44.5q-20 -51 -40.5 -114.5t-41 -130.5
t-40.5 -136.5t-39 -134.5q31 28 60 53t54 44q4 -1 5 -2.5t1 -5.5q-28 -22 -60 -49.5t-66 -58.5q-10 -31 -19 -61t-18 -57q-23 -71 -67 -161t-96.5 -169t-107.5 -133.5t-101 -54.5q-19 0 -35 13t-16 44q0 41 36.5 105t94 137.5t130 152t143.5 146.5q2 10 4.5 19.5t3.5 19.5
q8 43 21.5 92.5t28.5 95t29 83.5t22 59q-21 -31 -44.5 -72t-46.5 -80.5t-43.5 -72.5t-35.5 -48q-7 -8 -15 -14.5t-14 -9.5q-7 0 -16 4.5t-13 17.5q4 37 35 104.5t66 141.5t63.5 145t28.5 115q1 18 -6.5 31.5t-17.5 13.5q-28 -14 -58.5 -48t-55.5 -72.5t-41.5 -74
t-16.5 -51.5q0 -4 1.5 -7.5t3.5 -4.5q1 -4 -1.5 -6t-5.5 -2q-4 4 -6.5 8.5t-2.5 11.5q0 21 22 64t52.5 86t64 75.5t56.5 32.5zM487 607q24 24 34 47t11 36q0 3 -0.5 5.5t-1.5 3.5q-6 -1 -11.5 -11t-11 -24t-10.5 -29.5t-10 -27.5zM-132 -526q0 -18 9 -32t31 -14t52 20t64 57
t70 91.5t68 122.5q4 9 11 23t16 9q-6 7 0.5 16.5t-0.5 21.5q7 12 16.5 29t15.5 16q-5 10 -5 15.5t4 15.5t8 22t13 13q-7 7 -3.5 21t6.5 24q4 13 7 26l6 26q-71 -68 -140.5 -144.5t-124.5 -147.5t-89.5 -132t-34.5 -99zM475 897q10 0 16.5 -7t6.5 -21q-2 -10 -4 -18t-2 -16
q0 -12 5.5 -29t12.5 -30q-1 -5 -3 -6.5t-9 -1.5q-13 13 -31 41.5t-18 53.5q0 16 8 25t18 9z" />
    <glyph glyph-name="ygrave" unicode="&#x1ef3;" 
d="M63 213q3 0 7.5 -1.5t11.5 -5.5q-6 -10 -11 -18.5t-10 -18.5q-3 -6 -7 -12t-14 -11q12 -2 10 -12.5t-4 -20.5q-4 -18 -6 -31t-2 -27q0 -20 7.5 -25t14.5 -5t15.5 3.5t16.5 10.5q9 7 14.5 17t7.5 20q10 54 23.5 95.5t29.5 41.5q12 1 18.5 -6t9.5 -12q-9 -16 -30 -72.5
t-32 -131.5q-1 -11 -3 -22l-4 -22q17 13 31 28t24 31q4 1 7 -0.5t3 -4.5q-13 -22 -30 -38.5t-39 -32.5q-6 -29 -14 -57.5t-18 -53.5q-4 -4 -6.5 -8.5t-7.5 -10.5q-1 -16 -4 -24.5t-6 -15.5q-4 -8 -11.5 -14t-10.5 -17q1 -5 -1 -11.5t-6 -11.5q-13 -21 -26.5 -33t-24.5 -12
q-9 0 -15 8.5t-6 33.5q0 51 21 105t75 92q7 4 13.5 9.5t13.5 9.5q6 34 11.5 67t7.5 42q1 7 -1 8t-6 -4q-10 -11 -28.5 -26.5t-35.5 -15.5t-31 10.5t-14 41.5q0 32 17.5 76t35.5 76q4 7 8 13t11 6zM-24 -297q0 -16 2 -23.5t9 -7.5q11 0 25 20.5t27.5 53.5t26 75t19.5 83
q-4 -3 -8.5 -6t-8.5 -6q-28 -20 -46.5 -45t-28.5 -50q-1 -3 -3 -6t-8 -7q4 -1 4 -3.5v-5.5q-1 -2 -3 -5t-1 -6q-4 -16 -5 -32t-1 -29zM190 477q10 0 16.5 -7t6.5 -21q-2 -10 -4 -18t-2 -16q0 -12 5.5 -29t12.5 -30q-1 -5 -3 -6.5t-9 -1.5q-13 13 -31 41.5t-18 53.5
q0 16 8 25t18 9z" />
    <glyph glyph-name="quoteright" unicode="&#x2019;" horiz-adv-x="139" 
d="M159 557q1 12 4.5 19.5t8.5 6.5q1 4 6.5 5.5t8.5 1.5q16 -3 18.5 -12.5t2.5 -19.5q0 -20 -6 -31t-13 -31q-19 -51 -27.5 -70t-20.5 -29q-3 0 -4.5 1t-2.5 5q4 6 9.5 15.5t10.5 22.5q1 3 3.5 6.5t6.5 7.5q-1 3 -1 6t1 6q1 7 4.5 9t4.5 7q-3 4 -3 10t1 13q-6 13 -9 23
t-3 28z" />
    <glyph glyph-name="grave.cap" horiz-adv-x="250" 
d="M342 897q10 0 16.5 -7t6.5 -21q-2 -10 -4 -18t-2 -16q0 -12 5.5 -29t12.5 -30q-1 -5 -3 -6.5t-9 -1.5q-13 13 -31 41.5t-18 53.5q0 16 8 25t18 9z" />
    <glyph glyph-name="acute.cap" horiz-adv-x="250" 
d="M367 871q2 13 11 17.5t16 4.5q10 0 14.5 -8t4.5 -16t-3.5 -16.5t-7.5 -16.5q-1 -2 -4 -4.5t-12 -2.5q1 -5 -1 -9t-3 -7q-3 -2 -6.5 -3.5t-7.5 -1.5q1 -7 -2 -9.5t-3 -6.5l-12.5 -12.5l-9.5 -9.5q-3 -2 -5.5 -3t-5.5 -1t-5.5 1.5t-3.5 5.5q2 3 12.5 14.5t19.5 29.5
q5 10 9 25.5t5 28.5z" />
    <glyph glyph-name="circumflex.cap" horiz-adv-x="250" 
d="M384 894v-41q0 -32 6 -44t17 -23l-1.5 -5t-12.5 -5q-24 6 -36 24t-16 33q-13 -34 -42.5 -56t-44.5 -27q-4 -6 -7.5 -7.5t-5.5 -1.5q-6 0 -7 2.5t-1 8.5q20 9 37.5 23t30.5 29t23 29t15 23q1 6 2 11t4 10q4 7 10.5 12t16.5 6h8t4 -1z" />
    <glyph glyph-name="dieresis.cap" horiz-adv-x="250" 
d="M367 839q0 16 12 35t32 19q5 0 8 -2.5t1 -5.5q-11 0 -15 -9.5t-4 -16.5q0 -8 3 -15.5t10 -11.5q0 -9 -6 -16.5t-17 -7.5q-13 0 -18.5 9t-5.5 22zM312 870q12 0 16 -6.5t4 -14.5q0 -13 -6.5 -20t-6.5 -20q0 -6 2.5 -10t9.5 -4q5 0 9.5 4t5.5 11q4 1 6.5 1t2.5 -6
q-4 -13 -16 -22.5t-25 -9.5t-22.5 11t-9.5 32q0 14 7 32t23 22z" />
    <glyph glyph-name="F.att1" horiz-adv-x="1286" 
d="M579 -15q-5 -13 -13 -22t-18 -16q-46 -28 -101 -42.5t-124 -14.5q-46 0 -88.5 8t-75 24.5t-52 40.5t-19.5 55q0 32 23.5 66.5t60 62.5t81.5 46.5t88 18.5q18 0 30.5 -8t19.5 -20t10 -25.5t3 -25.5q0 -57 -31.5 -94t-68.5 -59q-4 0 -6.5 1.5t-2.5 8.5q34 29 44.5 65.5
t10.5 78.5q0 31 -8 47t-22 16q-30 0 -68.5 -16.5t-72.5 -42.5t-57 -57.5t-23 -61.5q0 -29 18.5 -51t49.5 -37t71.5 -22.5t84.5 -7.5q76 0 133.5 21t101.5 57.5t78 86t65 106.5q-34 -10 -64.5 -17t-54.5 -10q-4 2 -3.5 4.5t1.5 5.5q26 4 59.5 12.5t68.5 18.5q19 34 37 69.5
t38 72.5q2 5 3 9.5t1 8.5q0 9 -8.5 13.5t-31.5 4.5q-21 0 -57 -2.5t-82 -5t-100.5 -5t-113.5 -2.5q-137 0 -218.5 17.5t-81.5 63.5q0 28 29 52t79 41t117.5 27t143.5 10q42 0 95 -1t111.5 -2.5t121.5 -3.5l126 -4q66 94 140.5 149t169.5 55q43 0 63 -9.5t20 -18.5
q0 -4 -3.5 -7t-7.5 -3q-7 14 -23 19.5t-49 5.5q-90 0 -150 -49.5t-117 -142.5q75 -2 146 -4.5t130 -3.5q68 42 162 69t214 27q36 0 51.5 -7t15.5 -19q0 -14 -27 -28.5t-71.5 -26.5t-103.5 -20t-122 -8h-47t-50 1q-61 -41 -102 -90t-65 -93.5t-34.5 -80t-10.5 -49.5
q0 -7 1.5 -11t5.5 -4t9.5 3t6.5 3q2 0 3 -2t1 -3q-5 -7 -12.5 -12t-17.5 -5q-11 0 -23 8t-12 33q0 23 11.5 59.5t36.5 78t65.5 85.5t96.5 81q-60 1 -127 3.5t-138 5.5q-19 -34 -40.5 -72.5t-45.5 -81.5q7 0 14.5 -0.5t13.5 -1.5q1 -3 0 -6.5t-3 -4.5q-4 1 -13.5 1.5
t-13.5 0.5h-2h-2q-4 -7 -7 -13t-7 -13q-21 -38 -41.5 -74t-39.5 -68q29 10 54.5 21.5t44.5 23.5q8 13 14.5 24.5t12.5 21.5q10 16 24.5 29t37.5 13q4 0 7 -3.5t3 -7.5q0 -15 -7.5 -31.5t-20.5 -35.5q-5 -12 -14.5 -18.5t-10.5 -12.5q-25 -7 -26 -23.5t-5 -23.5
q-7 -8 -16 -16t-18 -18q-25 -32 -50.5 -65.5t-40.5 -65.5q-5 0 -7.5 1t-3.5 5q38 78 64 127t45 80q-21 -10 -45.5 -20.5t-49.5 -19.5q-23 -37 -46 -71t-46 -62q-10 -4 -17.5 -9t-5.5 -16q-10 -10 -16 -19t-17 -11q-5 -9 -12 -12.5t-19 -4.5zM1612 626q-108 0 -192 -24.5
t-145 -62.5q23 -1 43.5 -1h36.5q65 0 122.5 8t99.5 19t66.5 23.5t24.5 21.5q0 7 -12.5 11.5t-43.5 4.5zM105 430q0 -38 77.5 -54t211.5 -16q81 0 142 3t109 7t88.5 8t80.5 5q24 43 48 82.5t48 73.5q-110 4 -225 7t-222 3q-81 0 -147.5 -10.5t-113 -27.5t-72 -38.5
t-25.5 -42.5zM947 -44q12 0 35 17t49 39t50 45.5t37 37.5q3 0 4.5 -1.5t2.5 -3.5q-25 -28 -47 -49.5t-41 -38.5q-37 -31 -63.5 -50.5t-47.5 -19.5q-7 0 -12.5 3.5t-5.5 10.5q0 9 9.5 14.5t22.5 9.5q2 -1 3 -2.5t1 -3.5q-1 0 -3 -1.5t-2 -2.5t1.5 -2.5t6.5 -1.5z" />
    <glyph glyph-name="N.att1" horiz-adv-x="1031" 
d="M546 710q5 0 9.5 -2.5t5.5 -7.5q-1 -14 -26 -52.5t-59 -100.5q-4 -27 -21 -78t-38 -109.5t-42 -115.5t-32 -96q19 26 80.5 150.5t154 262.5t213 249.5t254.5 111.5q37 0 60.5 -11.5t37 -30t18 -41t4.5 -44.5q0 -31 -10.5 -69.5t-29.5 -80.5q6 -13 8 -27.5t2 -26.5
q0 -54 -34 -113t-93 -122q-2 -1 -4 0t-3 4q19 20 38.5 48.5t35.5 60t26 63.5t10 58v12t-1 10q-34 -68 -84.5 -137.5t-108 -125t-119.5 -91t-119 -35.5q-48 0 -70.5 30t-22.5 62q0 58 41.5 127.5t103.5 128.5t135.5 99t137.5 40q37 0 61.5 -9.5t39.5 -24.5q4 10 7 20.5
t5 20.5q1 6 4 13t13 14q-7 6 -8 13t0 14q1 6 1 12v11q0 7 2 15t7 12q-8 8 -11.5 14t-0.5 14q4 15 -4 20.5t-3 13.5q-9 1 -15.5 7t-8.5 13q-6 -3 -13 -2t-12 5q-6 7 -11 5t-12 -2q-141 0 -263 -118.5t-214.5 -264t-154 -274t-82.5 -148.5q-7 -31 -14.5 -58t-23.5 -56
q-13 0 -21.5 5t-9.5 18q5 16 13.5 34t21.5 39q5 59 22 114t38.5 106.5t45 101t41.5 97.5q-31 -43 -75 -123.5t-108 -178.5q-32 -49 -71.5 -104t-79 -101.5t-75.5 -77t-62 -30.5q-21 0 -33 9t-12 28q0 16 12.5 30t29.5 21q2 0 3.5 -1.5t1.5 -4.5q-7 -4 -16.5 -15.5
t-9.5 -28.5q0 -10 5.5 -18.5t18.5 -8.5q22 0 56.5 29.5t73 74.5t78.5 100t72 106q60 90 104 169t98 160q14 53 36.5 100.5t54.5 69.5zM597 315q0 -43 27 -62t56 -19q57 0 119 39t119 99.5t104.5 135.5t74.5 147q-14 26 -39.5 35t-53.5 9q-62 0 -134 -39t-132 -97
t-100.5 -125t-40.5 -123zM767 -44q12 0 35 17t49 39t50 45.5t37 37.5q3 0 4.5 -1.5t2.5 -3.5q-25 -28 -47 -49.5t-41 -38.5q-37 -31 -63.5 -50.5t-47.5 -19.5q-7 0 -12.5 3.5t-5.5 10.5q0 9 9.5 14.5t22.5 9.5q2 -1 3 -2.5t1 -3.5q-1 0 -3 -1.5t-2 -2.5t1.5 -2.5t6.5 -1.5z
" />
    <glyph glyph-name="P.att1" horiz-adv-x="1084" 
d="M681 325q-32 0 -51 4t-28 11.5t-11.5 18t-2.5 23.5q0 22 15.5 45.5t45.5 42.5t75 31.5t104 12.5q99 0 144.5 -32t58.5 -72q78 32 131 75t53 92q0 28 -24 51t-64 38.5t-93.5 24t-112.5 8.5q-153 0 -291.5 -31.5t-242 -75.5t-165 -93t-61.5 -84q0 -24 36 -46t121 -22
q42 0 75 5.5t59 19.5q2 0 4 -3.5t2 -6.5q-22 -11 -50.5 -17t-54.5 -8h-9t-9 2q-4 -2 -8.5 -3t-8.5 -1t-7 2.5t-7 2.5q-7 -3 -11 -3h-8q-5 1 -9.5 2.5t-9.5 1.5q-5 -1 -9.5 -1.5t-8.5 1.5q-41 7 -69.5 25t-28.5 49q0 42 69.5 94t179 97t247.5 75t275 29q52 0 108.5 -8
t102 -24.5t75.5 -41.5t30 -59q0 -26 -16 -51t-43 -47.5t-64.5 -42.5t-80.5 -37q1 -7 2 -13.5t1 -13.5q0 -6 -1.5 -11.5t-5.5 -9.5q-3 -6 -3.5 -10.5t-3.5 -8.5q-5 -1 -8.5 -6t-7.5 -7q-4 0 -8 -2t-8 -2q-13 0 -20 6.5t-9 11.5q1 5 4.5 5h3.5l3.5 -5.5t8.5 -5.5q6 0 10 12
t4 40v2.5v2.5q-79 -28 -163.5 -43.5t-150.5 -15.5zM762 669q28 0 43 -13.5t15 -35.5q0 -23 -15 -42t-26 -26q-2 0 -5 2.5t-2 6.5q13 7 25 23.5t12 35.5q0 17 -11 27.5t-36 10.5q-45 0 -78 -34t-84 -119q-24 -40 -37 -70.5t-19.5 -59t-10 -60t-9.5 -71.5q-4 -42 -17.5 -77.5
t-24.5 -65.5q-2 -6 -5.5 -11t-12.5 -4q3 -13 -4 -20t-13 -14q-6 -6 -8 -13t-10 -14q-4 -10 -10 -12.5t-17 -5.5q5 -10 1.5 -17t-8.5 -12q-28 -29 -59.5 -47t-60 -27t-53.5 -12t-40 -3q-70 0 -111 39t-41 95q0 29 18.5 63.5t46.5 63.5t61.5 48.5t62.5 19.5q18 0 37.5 -4
t36 -15t27 -31.5t10.5 -52.5q-1 -41 -17 -66t-29 -35q-9 -7 -15 -9t-12 -2q-4 0 -8.5 1.5t-8.5 6.5q13 26 19.5 55t6.5 55q0 32 -11 59t-36 27q-33 0 -65 -20.5t-57 -49t-40.5 -60.5t-15.5 -54q0 -33 14 -56.5t34.5 -37.5t45.5 -20.5t47 -6.5q81 0 131.5 35t80 87t42 112.5
t18.5 110.5q9 86 34 150t64 120q60 87 116 119.5t94 32.5zM599 382q0 -21 12.5 -33.5t69.5 -12.5q66 0 150.5 16t162.5 44q-3 18 -14 37t-31 34.5t-50 25.5t-71 10q-56 0 -99 -11.5t-72 -29.5t-43.5 -39.5t-14.5 -40.5zM807 -44q12 0 35 17t49 39t50 45.5t37 37.5
q3 0 4.5 -1.5t2.5 -3.5q-25 -28 -47 -49.5t-41 -38.5q-37 -31 -63.5 -50.5t-47.5 -19.5q-7 0 -12.5 3.5t-5.5 10.5q0 9 9.5 14.5t22.5 9.5q2 -1 3 -2.5t1 -3.5q-1 0 -3 -1.5t-2 -2.5t1.5 -2.5t6.5 -1.5z" />
    <glyph glyph-name="V.att2" horiz-adv-x="794" 
d="M613 740q16 0 22 -10t6 -23q0 -42 -43 -84t-143 -95q-10 -26 -20 -56.5t-19 -64.5q-4 -9 -9.5 -14.5t-12.5 -19.5q4 -7 2 -13t-4 -11q-3 -6 -7 -12.5t-16 -12.5q6 -7 4.5 -13.5t-3.5 -12.5q-3 -6 -6.5 -12t-13.5 -11q4 -7 2.5 -12.5t-3.5 -10.5q-43 -96 -76 -159t-45 -94
q16 38 44.5 84.5t63 97t72.5 103.5t74 104q46 65 93.5 124t90 102.5t77.5 69.5t57 26q8 0 19 -3t21 -11t17.5 -22.5t7.5 -37.5q0 -42 -12 -81.5t-31 -74.5t-44 -65.5t-51 -54.5q-3 -3 -7.5 -6t-14.5 -5q4 -4 1 -8t-7 -8q-2 -2 -5.5 -3t-13.5 0q5 -5 4.5 -7.5t-2.5 -3.5
q-26 -20 -52 -31.5t-48 -11.5q-14 0 -27.5 3t-18.5 8q0 4 2 6t5 3q4 -4 13.5 -6.5t25.5 -2.5q43 0 82 38t68 92t46 114.5t17 106.5q0 16 -2.5 35t-11.5 19q-4 0 -11.5 -3t-21.5 -14q-57 -46 -121.5 -119.5t-136.5 -174.5q-36 -50 -74.5 -104t-75 -108.5t-69 -108.5
t-55.5 -105q-7 -19 -15 -34.5t-9 -29.5q-4 -2 -8.5 -1.5t-5.5 4.5q12 55 36.5 127t52.5 144t55 137.5t43 109.5q8 22 18 44.5t20 44.5q-13 -7 -27.5 -13.5t-29.5 -13.5q-143 -67 -227.5 -123t-84.5 -99q0 -16 12 -25t34 -9q24 0 54.5 13t62 37.5t62 60t54.5 79.5q3 1 6 0
t4 -5q0 -15 -23 -48t-58.5 -65.5t-78.5 -57.5t-83 -25q-27 0 -42 12t-15 33q0 28 30.5 58.5t77 60.5t103 59t109.5 53q16 7 32.5 15t33.5 16q23 47 49 88.5t52.5 72t52.5 48t50 17.5zM613 729q-30 0 -71.5 -45t-81.5 -144q33 18 63.5 38t54.5 41t38 43.5t14 44.5
q0 11 -4 16.5t-13 5.5zM515 -84q0 3 1 6t5 8q31 45 80 83.5t105 81.5q3 0 4.5 -1.5t2.5 -3.5q-26 -21 -54 -43t-53 -45.5t-44.5 -48t-27.5 -49.5q-11 0 -15 4t-4 8z" />
    <glyph glyph-name="W.att2" horiz-adv-x="728" 
d="M364 612q13 0 17.5 -8.5t4.5 -17.5q0 -22 -35 -92t-84.5 -162t-105.5 -194t-98 -186q26 26 63 88.5t77.5 132.5t83 135t79.5 97q19 26 47.5 65.5t59.5 81.5t62 81.5t54 64.5q5 5 11 8.5t10 3.5t6 -2t2 -6q-14 -7 -35.5 -32t-50.5 -63t-64 -88t-76 -106
q-25 -32 -61.5 -104t-72.5 -149t-66 -145t-41 -92q9 16 34.5 52.5t61 85t79.5 106.5t90 116l50 66t47 64q-1 4 -1 9.5v11.5q0 41 19.5 89t47 89.5t57.5 69t50 27.5q10 0 13.5 -5t3.5 -15t-12 -33t-31.5 -54t-45 -67t-51.5 -73q-1 -7 -1.5 -13.5t-0.5 -12.5q0 -31 17 -46.5
t38 -15.5q24 0 52.5 17t56 44t52 62.5t40.5 72.5q4 2 6 1.5t3 -4.5q-20 -50 -50 -90.5t-63 -68t-66 -42.5t-59 -15q-27 0 -45.5 11.5t-25.5 35.5q-28 -38 -52 -70t-38 -51q-16 -21 -39 -50t-57 -73.5t-81.5 -109t-110.5 -154.5q-10 0 -16 3.5t-6 15.5q5 29 30 87t60.5 126.5
t76.5 140t77 126.5q-54 -65 -93 -128t-73.5 -124.5t-71 -123t-86.5 -123.5q-5 0 -9 3t-4 10q0 9 3 22t8 29q1 4 4.5 8t16.5 5q-9 10 -8 19t5 18q4 10 8.5 20.5t9.5 20.5q34 73 80 158.5t89.5 163.5t78 139.5t44.5 87.5q0 2 -0.5 4.5t-4.5 2.5q-17 -4 -49.5 -30t-65.5 -60.5
t-60.5 -71t-34.5 -61.5q11 6 19 13t18 17q3 1 5 -2t2 -5q-5 -7 -22 -21t-24 -14q-3 0 -6 2.5t-3 6.5q0 22 28 61.5t65.5 78.5t75.5 68t58 29zM579 525q-3 -10 -6 -19t-4 -17q54 75 88.5 130t34.5 70q0 3 -1 6t-5 3q-8 0 -19.5 -10.5t-23.5 -27.5q-3 -4 -6 -9l-6 -10
q-4 6 -6 4.5t-3 -6.5t-1 -10.5t-1 -8.5q-16 -2 -12 -9t1 -13q-16 -2 -12 -10t1 -14q-2 -6 -7.5 -11t-21.5 -5q12 -13 12 -20t-2 -13zM452 -84q0 3 1 6t5 8q31 45 80 83.5t105 81.5q3 0 4.5 -1.5t2.5 -3.5q-26 -21 -54 -43t-53 -45.5t-44.5 -48t-27.5 -49.5q-11 0 -15 4t-4 8
z" />
    <glyph glyph-name="space_attaque1" horiz-adv-x="400" 
d="M193 -38q12 0 35.5 14.5t49.5 35.5q26 22 50 45.5t37 37.5q3 0 4.5 -1.5t2.5 -3.5q-25 -28 -46.5 -50t-41.5 -38q-37 -31 -64 -47.5t-48 -16.5q-7 0 -12.5 3.5t-5.5 10.5q0 9 9.5 14.5t22.5 9.5q2 -1 3 -2.5t1 -3.5q-1 0 -3 -1.5t-2 -2.5t1.5 -2.5t6.5 -1.5z" />
    <glyph glyph-name="space_attaque2" horiz-adv-x="350" 
d="M175 -107q-1 3 1 5.5t4 6.5q31 49 69 94.5t101 95.5q3 0 4.5 -1.5t2.5 -3.5q-57 -49 -99.5 -99.5t-70.5 -105.5q-6 0 -9 2.5t-3 5.5z" />
    <glyph glyph-name="attaque1" horiz-adv-x="1" 
d="M-206 -44q12 0 35 17t49 39t50 45.5t37 37.5q3 0 4.5 -1.5t2.5 -3.5q-25 -28 -47 -49.5t-41 -38.5q-37 -31 -63.5 -50.5t-47.5 -19.5q-7 0 -12.5 3.5t-5.5 10.5q0 9 9.5 14.5t22.5 9.5q2 -1 3 -2.5t1 -3.5q-1 0 -3 -1.5t-2 -2.5t1.5 -2.5t6.5 -1.5z" />
    <glyph glyph-name="attaque2" horiz-adv-x="1" 
d="M-191 -84q0 3 1 6t5 8q31 45 80 83.5t105 81.5q3 0 4.5 -1.5t2.5 -3.5q-26 -21 -54 -43t-53 -45.5t-44.5 -48t-27.5 -49.5q-11 0 -15 4t-4 8z" />
    </font>
</defs>
</svg>
